  0
SECTION
  2
HEADER
  9
$ACADVER
  1
AC1027
  9
$ACADMAINTVER
 70
   125
  9
$DWGCODEPAGE
  3
ANSI_1252
  9
$LASTSAVEDBY
  1
yatishkale
  9
$REQUIREDVERSIONS
160
                 0
  9
$INSBASE
 10
0.0
 20
0.0
 30
0.0
  9
$EXTMIN
 10
28.165388
 20
32.602097
 30
0.0
  9
$EXTMAX
 10
196.638219
 20
268.867373
 30
0.0
  9
$LIMMIN
 10
0.0
 20
0.0
  9
$LIMMAX
 10
210.0
 20
297.0
  9
$ORTHOMODE
 70
     0
  9
$REGENMODE
 70
     1
  9
$FILLMODE
 70
     1
  9
$QTEXTMODE
 70
     0
  9
$MIRRTEXT
 70
     0
  9
$LTSCALE
 40
0.75
  9
$ATTMODE
 70
     1
  9
$TEXTSIZE
 40
3.5
  9
$TRACEWID
 40
1.0
  9
$TEXTSTYLE
  7
Standard
  9
$CLAYER
  8
0
  9
$CELTYPE
  6
ByLayer
  9
$CECOLOR
 62
   256
  9
$CELTSCALE
 40
1.0
  9
$DISPSILH
 70
     0
  9
$DIMSCALE
 40
1.0
  9
$DIMASZ
 40
3.5
  9
$DIMEXO
 40
2.1
  9
$DIMDLI
 40
10.5
  9
$DIMRND
 40
0.0
  9
$DIMDLE
 40
0.0
  9
$DIMEXE
 40
2.1
  9
$DIMTP
 40
0.1
  9
$DIMTM
 40
0.1
  9
$DIMTXT
 40
3.5
  9
$DIMCEN
 40
0.0
  9
$DIMTSZ
 40
0.0
  9
$DIMTOL
 70
     0
  9
$DIMLIM
 70
     0
  9
$DIMTIH
 70
     0
  9
$DIMTOH
 70
     0
  9
$DIMSE1
 70
     0
  9
$DIMSE2
 70
     0
  9
$DIMTAD
 70
     1
  9
$DIMZIN
 70
    12
  9
$DIMBLK
  1

  9
$DIMASO
 70
     1
  9
$DIMSHO
 70
     1
  9
$DIMPOST
  1

  9
$DIMAPOST
  1

  9
$DIMALT
 70
     0
  9
$DIMALTD
 70
     2
  9
$DIMALTF
 40
0.03937
  9
$DIMLFAC
 40
1.0
  9
$DIMTOFL
 70
     1
  9
$DIMTVP
 40
0.0
  9
$DIMTIX
 70
     0
  9
$DIMSOXD
 70
     0
  9
$DIMSAH
 70
     0
  9
$DIMBLK1
  1

  9
$DIMBLK2
  1

  9
$DIMSTYLE
  2
Dim-ISO-25
  9
$DIMCLRD
 70
     0
  9
$DIMCLRE
 70
     0
  9
$DIMCLRT
 70
     0
  9
$DIMTFAC
 40
0.714286
  9
$DIMGAP
 40
1.4
  9
$DIMJUST
 70
     0
  9
$DIMSD1
 70
     0
  9
$DIMSD2
 70
     0
  9
$DIMTOLJ
 70
     0
  9
$DIMTZIN
 70
    12
  9
$DIMALTZ
 70
    12
  9
$DIMALTTZ
 70
    12
  9
$DIMUPT
 70
     0
  9
$DIMDEC
 70
     2
  9
$DIMTDEC
 70
     2
  9
$DIMALTU
 70
     2
  9
$DIMALTTD
 70
     4
  9
$DIMTXSTY
  7
Standard
  9
$DIMAUNIT
 70
     0
  9
$DIMADEC
 70
     2
  9
$DIMALTRND
 40
0.0
  9
$DIMAZIN
 70
     3
  9
$DIMDSEP
 70
    46
  9
$DIMATFIT
 70
     3
  9
$DIMFRAC
 70
     0
  9
$DIMLDRBLK
  1

  9
$DIMLUNIT
 70
     2
  9
$DIMLWD
 70
    -2
  9
$DIMLWE
 70
    -2
  9
$DIMTMOVE
 70
     0
  9
$DIMFXL
 40
1.0
  9
$DIMFXLON
 70
     0
  9
$DIMJOGANG
 40
0.785398
  9
$DIMTFILL
 70
     0
  9
$DIMTFILLCLR
 70
     0
  9
$DIMARCSYM
 70
     0
  9
$DIMLTYPE
  6

  9
$DIMLTEX1
  6

  9
$DIMLTEX2
  6

  9
$DIMTXTDIRECTION
 70
     0
  9
$LUNITS
 70
     2
  9
$LUPREC
 70
     4
  9
$SKETCHINC
 40
1.0
  9
$FILLETRAD
 40
0.0
  9
$AUNITS
 70
     0
  9
$AUPREC
 70
     0
  9
$MENU
  1
.
  9
$ELEVATION
 40
0.0
  9
$PELEVATION
 40
0.0
  9
$THICKNESS
 40
0.0
  9
$LIMCHECK
 70
     0
  9
$CHAMFERA
 40
0.0
  9
$CHAMFERB
 40
0.0
  9
$CHAMFERC
 40
0.0
  9
$CHAMFERD
 40
0.0
  9
$SKPOLY
 70
     0
  9
$TDCREATE
 40
2460156.454178241
  9
$TDUCREATE
 40
2460156.370844908
  9
$TDUPDATE
 40
2460156.454178241
  9
$TDUUPDATE
 40
2460156.370844908
  9
$TDINDWG
 40
0.0000000000
  9
$TDUSRTIMER
 40
0.0000000000
  9
$USRTIMER
 70
     1
  9
$ANGBASE
 50
0.0
  9
$ANGDIR
 70
     0
  9
$PDMODE
 70
     0
  9
$PDSIZE
 40
0.0
  9
$PLINEWID
 40
0.0
  9
$SPLFRAME
 70
     0
  9
$SPLINETYPE
 70
     6
  9
$SPLINESEGS
 70
     8
  9
$HANDSEED
  5
557
  9
$SURFTAB1
 70
     6
  9
$SURFTAB2
 70
     6
  9
$SURFTYPE
 70
     6
  9
$SURFU
 70
     6
  9
$SURFV
 70
     6
  9
$UCSBASE
  2

  9
$UCSNAME
  2

  9
$UCSORG
 10
0.0
 20
0.0
 30
0.0
  9
$UCSXDIR
 10
1.0
 20
0.0
 30
0.0
  9
$UCSYDIR
 10
0.0
 20
1.0
 30
0.0
  9
$UCSORTHOREF
  2

  9
$UCSORTHOVIEW
 70
     0
  9
$UCSORGTOP
 10
0.0
 20
0.0
 30
0.0
  9
$UCSORGBOTTOM
 10
0.0
 20
0.0
 30
0.0
  9
$UCSORGLEFT
 10
0.0
 20
0.0
 30
0.0
  9
$UCSORGRIGHT
 10
0.0
 20
0.0
 30
0.0
  9
$UCSORGFRONT
 10
0.0
 20
0.0
 30
0.0
  9
$UCSORGBACK
 10
0.0
 20
0.0
 30
0.0
  9
$PUCSBASE
  2

  9
$PUCSNAME
  2

  9
$PUCSORG
 10
0.0
 20
0.0
 30
0.0
  9
$PUCSXDIR
 10
1.0
 20
0.0
 30
0.0
  9
$PUCSYDIR
 10
0.0
 20
1.0
 30
0.0
  9
$PUCSORTHOREF
  2

  9
$PUCSORTHOVIEW
 70
     0
  9
$PUCSORGTOP
 10
0.0
 20
0.0
 30
0.0
  9
$PUCSORGBOTTOM
 10
0.0
 20
0.0
 30
0.0
  9
$PUCSORGLEFT
 10
0.0
 20
0.0
 30
0.0
  9
$PUCSORGRIGHT
 10
0.0
 20
0.0
 30
0.0
  9
$PUCSORGFRONT
 10
0.0
 20
0.0
 30
0.0
  9
$PUCSORGBACK
 10
0.0
 20
0.0
 30
0.0
  9
$USERI1
 70
     0
  9
$USERI2
 70
     0
  9
$USERI3
 70
     0
  9
$USERI4
 70
     0
  9
$USERI5
 70
     0
  9
$USERR1
 40
0.0
  9
$USERR2
 40
0.0
  9
$USERR3
 40
0.0
  9
$USERR4
 40
0.0
  9
$USERR5
 40
0.0
  9
$WORLDVIEW
 70
     1
  9
$SHADEDGE
 70
     3
  9
$SHADEDIF
 70
    70
  9
$TILEMODE
 70
     1
  9
$MAXACTVP
 70
    64
  9
$PINSBASE
 10
0.0
 20
0.0
 30
0.0
  9
$PLIMCHECK
 70
     0
  9
$PEXTMIN
 10
1.000000E+20
 20
1.000000E+20
 30
1.000000E+20
  9
$PEXTMAX
 10
-1.000000E+20
 20
-1.000000E+20
 30
-1.000000E+20
  9
$PLIMMIN
 10
0.0
 20
0.0
  9
$PLIMMAX
 10
12.0
 20
9.0
  9
$UNITMODE
 70
     0
  9
$VISRETAIN
 70
     1
  9
$PLINEGEN
 70
     0
  9
$PSLTSCALE
 70
     1
  9
$TREEDEPTH
 70
  3020
  9
$CMLSTYLE
  2
Standard
  9
$CMLJUST
 70
     0
  9
$CMLSCALE
 40
20.0
  9
$PROXYGRAPHICS
 70
     1
  9
$MEASUREMENT
 70
     1
  9
$CELWEIGHT
370
    -1
  9
$ENDCAPS
280
     0
  9
$JOINSTYLE
280
     0
  9
$LWDISPLAY
290
     0
  9
$INSUNITS
 70
     4
  9
$HYPERLINKBASE
  1

  9
$STYLESHEET
  1

  9
$XEDIT
290
     1
  9
$CEPSNTYPE
380
     0
  9
$PSTYLEMODE
290
     1
  9
$FINGERPRINTGUID
  2
{744AC218-3B0D-7546-86B8-6054C4C49E7B}
  9
$VERSIONGUID
  2
{56035E78-33A8-4E41-991F-12CE6EAE7841}
  9
$EXTNAMES
290
     1
  9
$PSVPSCALE
 40
0.0
  9
$OLESTARTUP
290
     0
  9
$SORTENTS
280
   127
  9
$INDEXCTL
280
     0
  9
$HIDETEXT
280
     1
  9
$XCLIPFRAME
280
     0
  9
$HALOGAP
280
     0
  9
$OBSCOLOR
 70
   257
  9
$OBSLTYPE
280
     0
  9
$INTERSECTIONDISPLAY
280
     0
  9
$INTERSECTIONCOLOR
 70
   257
  9
$DIMASSOC
280
     2
  9
$PROJECTNAME
  1

  9
$CAMERADISPLAY
290
     0
  9
$LENSLENGTH
 40
50.0
  9
$CAMERAHEIGHT
 40
0.0
  9
$STEPSPERSEC
 40
2.0
  9
$STEPSIZE
 40
6.0
  9
$3DDWFPREC
 40
2.0
  9
$PSOLWIDTH
 40
5.0
  9
$PSOLHEIGHT
 40
80.0
  9
$LOFTANG1
 40
1.570796
  9
$LOFTANG2
 40
1.570796
  9
$LOFTMAG1
 40
0.0
  9
$LOFTMAG2
 40
0.0
  9
$LOFTPARAM
 70
     7
  9
$LOFTNORMALS
280
     1
  9
$LATITUDE
 40
37.795
  9
$LONGITUDE
 40
-122.394
  9
$NORTHDIRECTION
 40
0.0
  9
$TIMEZONE
 70
 -8000
  9
$LIGHTGLYPHDISPLAY
280
     1
  9
$TILEMODELIGHTSYNCH
280
     1
  9
$CMATERIAL
347
11
  9
$SOLIDHIST
280
     0
  9
$SHOWHIST
280
     1
  9
$DWFFRAME
280
     2
  9
$DGNFRAME
280
     0
  9
$REALWORLDSCALE
290
     1
  9
$INTERFERECOLOR
 62
     1
  9
$INTERFEREOBJVS
345
33
  9
$INTERFEREVPVS
346
30
  9
$CSHADOW
280
     0
  9
$SHADOWPLANELOCATION
 40
0.0
  0
ENDSEC
  0
SECTION
  2
CLASSES
  0
CLASS
  1
ACDBDICTIONARYWDFLT
  2
AcDbDictionaryWithDefault
  3
ObjectDBX Classes
 90
        0
 91
        1
280
     0
281
     0
  0
CLASS
  1
MATERIAL
  2
AcDbMaterial
  3
ObjectDBX Classes
 90
     1153
 91
        3
280
     0
281
     0
  0
CLASS
  1
VISUALSTYLE
  2
AcDbVisualStyle
  3
ObjectDBX Classes
 90
     4095
 91
       24
280
     0
281
     0
  0
CLASS
  1
SCALE
  2
AcDbScale
  3
ObjectDBX Classes
 90
     1153
 91
       17
280
     0
281
     0
  0
CLASS
  1
TABLESTYLE
  2
AcDbTableStyle
  3
ObjectDBX Classes
 90
     4095
 91
        1
280
     0
281
     0
  0
CLASS
  1
MLEADERSTYLE
  2
AcDbMLeaderStyle
  3
ACDB_MLEADERSTYLE_CLASS
 90
     4095
 91
        1
280
     0
281
     0
  0
CLASS
  1
ACDBSECTIONVIEWSTYLE
  2
AcDbSectionViewStyle
  3
ObjectDBX Classes
 90
     1025
 91
        1
280
     0
281
     0
  0
CLASS
  1
ACDBDETAILVIEWSTYLE
  2
AcDbDetailViewStyle
  3
ObjectDBX Classes
 90
     1025
 91
        1
280
     0
281
     0
  0
CLASS
  1
ACMESCOPE
  2
AcMeScope
  3
AcMeServices
 90
     1024
 91
        1
280
     0
281
     0
  0
CLASS
  1
ACMECOMMANDHISTORY
  2
AcMeCommandHistory
  3
AcMeServices
 90
     1024
 91
        1
280
     0
281
     0
  0
CLASS
  1
ACIMSYSVARMAN
  2
AcImSysVarManager
  3
AcMeServices
 90
     1024
 91
        1
280
     0
281
     0
  0
CLASS
  1
ACIMINTSYSVAR
  2
AcImIntSysVar
  3
AcMeServices
 90
     1024
 91
        1
280
     0
281
     0
  0
CLASS
  1
ACMESTATEMGR
  2
AcMeStateMgr
  3
AcMeServices
 90
     1024
 91
        1
280
     0
281
     0
  0
CLASS
  1
ACGREFMASTER
  2
AcGrefMaster
  3
AcAttribServices
 90
     1024
 91
        1
280
     0
281
     0
  0
CLASS
  1
SORTENTSTABLE
  2
AcDbSortentsTable
  3
ObjectDBX Classes
 90
        0
 91
        1
280
     0
281
     0
  0
CLASS
  1
DICTIONARYVAR
  2
AcDbDictionaryVar
  3
ObjectDBX Classes
 90
        0
 91
        6
280
     0
281
     0
  0
CLASS
  1
CELLSTYLEMAP
  2
AcDbCellStyleMap
  3
ObjectDBX Classes
 90
     1152
 91
        1
280
     0
281
     0
  0
ENDSEC
  0
SECTION
  2
TABLES
  0
TABLE
  2
VPORT
  5
8
330
0
100
AcDbSymbolTable
 70
     1
1001
ACAD
1000
DbSaveVer
1071
      298
  0
VPORT
  5
57
330
8
100
AcDbSymbolTableRecord
100
AcDbViewportTableRecord
  2
*Active
 70
     0
 10
0.0
 20
0.0
 11
1.0
 21
1.0
 12
112.401804
 22
150.734735
 13
0.0
 23
0.0
 14
0.5
 24
0.5
 15
0.0
 25
0.0
 16
0.0
 26
0.0
 36
1.0
 17
0.0
 27
0.0
 37
0.0
 40
236.265276
 41
2.852405
 42
50.0
 43
0.0
 44
0.0
 50
0.0
 51
0.0
 71
     0
 72
 20000
 73
     1
 74
     0
 75
     0
 76
     0
 77
     0
 78
     0
281
     0
 65
     1
110
0.0
120
0.0
130
0.0
111
1.0
121
0.0
131
0.0
112
0.0
122
1.0
132
0.0
 79
     0
146
0.0
348
2F
 60
     3
 61
     5
292
     1
282
     1
141
0.0
142
0.0
 63
   250
421
  3355443
  0
ENDTAB
  0
TABLE
  2
LTYPE
  5
5
330
0
100
AcDbSymbolTable
 70
    14
  0
LTYPE
  5
5B
330
5
100
AcDbSymbolTableRecord
100
AcDbLinetypeTableRecord
  2
ByBlock
 70
     0
  3

 72
    65
 73
     0
 40
0.0
  0
LTYPE
  5
5C
330
5
100
AcDbSymbolTableRecord
100
AcDbLinetypeTableRecord
  2
ByLayer
 70
     0
  3

 72
    65
 73
     0
 40
0.0
  0
LTYPE
  5
5D
330
5
100
AcDbSymbolTableRecord
100
AcDbLinetypeTableRecord
  2
Continuous
 70
     0
  3
Solid line
 72
    65
 73
     0
 40
0.0
  0
LTYPE
  5
81
330
5
100
AcDbSymbolTableRecord
100
AcDbLinetypeTableRecord
  2
HIDDEN
 70
     0
  3
Hidden __ __ __ __ __ __ __ __ __ __ __ __ __ _
 72
    65
 73
     2
 40
9.525
 49
6.35
 74
     0
 49
-3.175
 74
     0
  0
LTYPE
  5
82
330
5
100
AcDbSymbolTableRecord
100
AcDbLinetypeTableRecord
  2
PHANTOM2
 70
     0
  3
Phantom (.5x) ___ _ _ ___ _ _ ___ _ _ ___ _ _
 72
    65
 73
     6
 40
31.75
 49
15.875
 74
     0
 49
-3.175
 74
     0
 49
3.175
 74
     0
 49
-3.175
 74
     0
 49
3.175
 74
     0
 49
-3.175
 74
     0
  0
LTYPE
  5
83
330
5
100
AcDbSymbolTableRecord
100
AcDbLinetypeTableRecord
  2
CENTER
 70
     0
  3
Center ____ _ ____ _ ____ _ ____ _ ____ _ ____
 72
    65
 73
     4
 40
50.8
 49
31.75
 74
     0
 49
-6.35
 74
     0
 49
6.35
 74
     0
 49
-6.35
 74
     0
  0
LTYPE
  5
96
330
5
100
AcDbSymbolTableRecord
100
AcDbLinetypeTableRecord
  2
AM_ISO02W050
 70
     0
  3
__ __ __ __ __ __ __ __ __ __ __ __ __ __ __
 72
    65
 73
     2
 40
7.5
 49
6.0
 74
     0
 49
-1.5
 74
     0
  0
LTYPE
  5
97
330
5
100
AcDbSymbolTableRecord
100
AcDbLinetypeTableRecord
  2
AM_ISO08W050
 70
     0
  3
____ . ____ . ____ . ____ . ____ . ____ . ____
 72
    65
 73
     4
 40
18.0
 49
12.0
 74
     0
 49
-1.5
 74
     0
 49
3.0
 74
     0
 49
-1.5
 74
     0
  0
LTYPE
  5
98
330
5
100
AcDbSymbolTableRecord
100
AcDbLinetypeTableRecord
  2
AM_ISO09W050
 70
     0
  3
_____ . . _____ . . _____ . . ____ .. ____
 72
    65
 73
     6
 40
22.5
 49
12.0
 74
     0
 49
-1.5
 74
     0
 49
3.0
 74
     0
 49
-1.5
 74
     0
 49
3.0
 74
     0
 49
-1.5
 74
     0
  0
LTYPE
  5
99
330
5
100
AcDbSymbolTableRecord
100
AcDbLinetypeTableRecord
  2
Amconstr
 70
     0
  3
_______________________
 72
    65
 73
     2
 40
9999.0
 49
9999.0
 74
     0
 49
0.0
 74
     0
  0
LTYPE
  5
9A
330
5
100
AcDbSymbolTableRecord
100
AcDbLinetypeTableRecord
  2
AM_ISO08W050x2
 70
     0
  3
__ . __ . __ . __ . __ . __
 72
    65
 73
     4
 40
9.0
 49
6.0
 74
     0
 49
-0.75
 74
     0
 49
1.5
 74
     0
 49
-0.75
 74
     0
  0
LTYPE
  5
9B
330
5
100
AcDbSymbolTableRecord
100
AcDbLinetypeTableRecord
  2
AM_ISO02W050x2
 70
     0
  3
 _ _ _ _ _ _ _ _ _ _ _ _
 72
    65
 73
     2
 40
3.75
 49
3.0
 74
     0
 49
-0.75
 74
     0
  0
LTYPE
  5
9C
330
5
100
AcDbSymbolTableRecord
100
AcDbLinetypeTableRecord
  2
Amzigzag
 70
     0
  3
/\/-/\/-/\/-/\/-/\/-/\/
 72
    65
 73
     2
 40
11.0001
 49
0.0001
 74
     4
 75
   136
340
93
 46
0.04
 50
0.0
 44
0.0
 45
0.0
 49
-11.0
 74
     0
  0
LTYPE
  5
9D
330
5
100
AcDbSymbolTableRecord
100
AcDbLinetypeTableRecord
  2
ACISOWELD
 70
     0
  3
_ _ _ _ _
 72
    65
 73
     2
 40
2.0
 49
2.0
 74
     0
 49
-1.0
 74
     0
  0
LTYPE
  5
9E
330
5
100
AcDbSymbolTableRecord
100
AcDbLinetypeTableRecord
  2
ACISOTGL
 70
     0
  3
_ _ _ _ _
 72
    65
 73
     2
 40
3.0
 49
2.0
 74
     0
 49
-1.0
 74
     0
  0
LTYPE
  5
9F
330
5
100
AcDbSymbolTableRecord
100
AcDbLinetypeTableRecord
  2
ACISOTGB
 70
     0
  3
__ . . __ . .
 72
    65
 73
     6
 40
9.0
 49
4.0
 74
     0
 49
-1.0
 74
     0
 49
1.0
 74
     0
 49
-1.0
 74
     0
 49
1.0
 74
     0
 49
-1.0
 74
     0
  0
ENDTAB
  0
TABLE
  2
LAYER
  5
2
330
0
100
AcDbSymbolTable
 70
     5
  0
LAYER
  5
54
330
2
100
AcDbSymbolTableRecord
100
AcDbLayerTableRecord
  2
0
 70
     0
 62
     7
  6
Continuous
370
    -3
390
F
347
21
348
0
1001
AcAecLayerStandard
1000

1000

  0
LAYER
  5
79
330
2
100
AcDbSymbolTableRecord
100
AcDbLayerTableRecord
  2
Defpoints
 70
     0
 62
     7
  6
Continuous
290
     0
370
    -3
390
F
347
21
348
0
1001
AcAecLayerStandard
1000

1000

  0
LAYER
  5
AB
330
2
100
AcDbSymbolTableRecord
100
AcDbLayerTableRecord
  2
Visible
 70
     0
 62
     7
  6
Continuous
370
    35
390
F
347
21
348
0
  0
LAYER
  5
2B4
330
2
100
AcDbSymbolTableRecord
100
AcDbLayerTableRecord
  2
FD_Dimensions
 70
     0
 62
     7
  6
Continuous
370
    18
390
F
347
21
348
0
  0
ENDTAB
  0
TABLE
  2
STYLE
  5
3
330
0
100
AcDbSymbolTable
 70
     4
  0
STYLE
  5
55
330
3
100
AcDbSymbolTableRecord
100
AcDbTextStyleTableRecord
  2
Standard
 70
     0
 40
0.0
 41
1.0
 50
0.0
 71
     0
 42
3.5
  3
arial.ttf
  4

1001
ACAD
1000
Arial
1071
       34
  0
STYLE
  5
5A
330
3
100
AcDbSymbolTableRecord
100
AcDbTextStyleTableRecord
  2
Annotative
 70
     0
 40
0.0
 41
1.0
 50
0.0
 71
     0
 42
0.2
  3
txt
  4

1001
AcadAnnotative
1000
AnnotativeData
1002
{
1070
     1
1070
     1
1002
}
  0
STYLE
  5
93
330
3
100
AcDbSymbolTableRecord
100
AcDbTextStyleTableRecord
  2

 70
     1
 40
0.0
 41
1.0
 50
0.0
 71
     0
 42
10.0
  3
genltshp.shx
  4

  0
STYLE
  5
94
330
3
100
AcDbSymbolTableRecord
100
AcDbTextStyleTableRecord
  2
ACISOGDT
 70
     0
 40
0.0
 41
1.0
 50
0.0
 71
     0
 42
10.0
  3
amgdt.shx
  4

  0
ENDTAB
  0
TABLE
  2
VIEW
  5
6
330
0
100
AcDbSymbolTable
 70
     0
  0
ENDTAB
  0
TABLE
  2
UCS
  5
7
330
0
100
AcDbSymbolTable
 70
     0
  0
ENDTAB
  0
TABLE
  2
APPID
  5
9
330
0
100
AcDbSymbolTable
 70
    21
  0
APPID
  5
56
330
9
100
AcDbSymbolTableRecord
100
AcDbRegAppTableRecord
  2
ACAD
 70
     0
  0
APPID
  5
5E
330
9
100
AcDbSymbolTableRecord
100
AcDbRegAppTableRecord
  2
AcadAnnotative
 70
     0
  0
APPID
  5
78
330
9
100
AcDbSymbolTableRecord
100
AcDbRegAppTableRecord
  2
ACAD_PSEXT
 70
     0
  0
APPID
  5
7A
330
9
100
AcDbSymbolTableRecord
100
AcDbRegAppTableRecord
  2
MCAD_NO_VIS
 70
     0
  0
APPID
  5
7B
330
9
100
AcDbSymbolTableRecord
100
AcDbRegAppTableRecord
  2
ACAD_TEMP_GRAPHIC
 70
     0
  0
APPID
  5
84
330
9
100
AcDbSymbolTableRecord
100
AcDbRegAppTableRecord
  2
ACAD_DSTYLE_DIMJAG
 70
     0
  0
APPID
  5
85
330
9
100
AcDbSymbolTableRecord
100
AcDbRegAppTableRecord
  2
ACAD_DSTYLE_DIMTALN
 70
     0
  0
APPID
  5
86
330
9
100
AcDbSymbolTableRecord
100
AcDbRegAppTableRecord
  2
ACAD_NAV_VCDISPLAY
 70
     0
  0
APPID
  5
87
330
9
100
AcDbSymbolTableRecord
100
AcDbRegAppTableRecord
  2
ACAD_DSTYLE_DIMBREAK
 70
     0
  0
APPID
  5
88
330
9
100
AcDbSymbolTableRecord
100
AcDbRegAppTableRecord
  2
ACAD_TC
 70
     0
  0
APPID
  5
89
330
9
100
AcDbSymbolTableRecord
100
AcDbRegAppTableRecord
  2
FUSIONCURRENTTITLEBLOCK
 70
     0
  0
APPID
  5
8A
330
9
100
AcDbSymbolTableRecord
100
AcDbRegAppTableRecord
  2
AcSynergy
 70
     0
  0
APPID
  5
8B
330
9
100
AcDbSymbolTableRecord
100
AcDbRegAppTableRecord
  2
GENIUS_GENSCREG_15
 70
     0
  0
APPID
  5
8C
330
9
100
AcDbSymbolTableRecord
100
AcDbRegAppTableRecord
  2
GENIUS_GENOBJ-N-SDF_13
 70
     0
  0
APPID
  5
8D
330
9
100
AcDbSymbolTableRecord
100
AcDbRegAppTableRecord
  2
GENIUS_GENODEF_13
 70
     0
  0
APPID
  5
8E
330
9
100
AcDbSymbolTableRecord
100
AcDbRegAppTableRecord
  2
ACAD_DIMASSOC_CALC_DIMLFAC
 70
     0
  0
APPID
  5
8F
330
9
100
AcDbSymbolTableRecord
100
AcDbRegAppTableRecord
  2
ACAD_DIMASSOC_DIMLFAC
 70
     0
  0
APPID
  5
90
330
9
100
AcDbSymbolTableRecord
100
AcDbRegAppTableRecord
  2
ACAD_DIMASSOC_OVERRIDDEN_DIMLFAC
 70
     0
  0
APPID
  5
91
330
9
100
AcDbSymbolTableRecord
100
AcDbRegAppTableRecord
  2
ACAD_DSTYLE_DIMJAG_POSITION
 70
     0
  0
APPID
  5
92
330
9
100
AcDbSymbolTableRecord
100
AcDbRegAppTableRecord
  2
ACATTRIBSERVICES
 70
     0
  0
APPID
  5
524
330
9
100
AcDbSymbolTableRecord
100
AcDbRegAppTableRecord
  2
AcAecLayerStandard
 70
     0
  0
ENDTAB
  0
TABLE
  2
DIMSTYLE
  5
A
330
0
100
AcDbSymbolTable
 70
     4
100
AcDbDimStyleTable
 71
     1
340
A3
  0
DIMSTYLE
105
58
330
A
100
AcDbSymbolTableRecord
100
AcDbDimStyleTableRecord
  2
Standard
 70
     0
 41
3.5
 42
2.1
 43
10.5
 44
2.1
 78
    12
 79
     3
140
3.5
143
0.03937
146
0.714286
147
1.4
179
     2
271
     2
272
     2
284
    12
340
55
  0
DIMSTYLE
105
59
330
A
100
AcDbSymbolTableRecord
100
AcDbDimStyleTableRecord
  2
Annotative
 70
     0
 40
0.0
 41
3.5
 42
2.1
 43
10.5
 44
2.1
 73
     0
 74
     0
 77
     1
 78
    12
 79
     3
140
3.5
141
2.5
143
0.03937
146
0.714286
147
1.4
171
     3
172
     1
179
     2
271
     2
272
     2
274
     3
278
    44
283
     0
284
    12
340
55
1001
AcadAnnotative
1000
AnnotativeData
1002
{
1070
     1
1070
     1
1002
}
  0
DIMSTYLE
105
A2
330
A
100
AcDbSymbolTableRecord
100
AcDbDimStyleTableRecord
  2
ISO-25
 70
     0
  4
in
 41
3.5
 42
2.1
 43
10.5
 44
2.1
 47
0.1
 48
0.1
 73
     0
 74
     0
 77
     1
 78
    12
 79
     3
140
3.5
141
0.0
143
0.03937
146
0.714286
147
1.4
171
     4
172
     1
176
   256
177
   256
178
   256
179
     2
271
     2
272
     2
274
     4
283
     0
284
    12
285
     8
340
55
1001
ACAD_DSTYLE_DIMJAG
1070
   388
1040
1.5
1001
ACAD_DSTYLE_DIMTALN
1070
   392
1070
     1
1001
ACAD_DSTYLE_DIMBREAK
1070
   391
1040
3.5
  0
DIMSTYLE
105
A3
102
{ACAD_REACTORS
330
2B3
330
2C1
102
}
330
A
100
AcDbSymbolTableRecord
100
AcDbDimStyleTableRecord
  2
Dim-ISO-25
 70
     0
 41
3.5
 42
2.1
 43
10.5
 44
2.1
 47
0.1
 48
0.1
 73
     0
 74
     0
 77
     1
 78
    12
 79
     3
140
3.5
141
0.0
143
0.03937
146
0.714286
147
1.4
172
     1
179
     2
271
     2
272
     2
274
     4
283
     0
284
    12
285
    12
286
    12
340
55
1001
ACAD_DSTYLE_DIMJAG
1070
   388
1040
1.5
1001
ACAD_DSTYLE_DIMTALN
1070
   392
1070
     1
1001
ACAD_DSTYLE_DIMBREAK
1070
   391
1040
3.5
  0
ENDTAB
  0
TABLE
  2
BLOCK_RECORD
  5
1
330
0
100
AcDbSymbolTable
 70
     6
  0
BLOCK_RECORD
  5
70
102
{ACAD_XDICTIONARY
360
A4
102
}
330
1
100
AcDbSymbolTableRecord
100
AcDbBlockTableRecord
  2
*Model_Space
340
73
 70
     0
280
     1
281
     0
  0
BLOCK_RECORD
  5
6C
330
1
100
AcDbSymbolTableRecord
100
AcDbBlockTableRecord
  2
*Paper_Space
340
6F
 70
     0
280
     1
281
     0
  0
BLOCK_RECORD
  5
74
330
1
100
AcDbSymbolTableRecord
100
AcDbBlockTableRecord
  2
*Paper_Space0
340
77
 70
     0
280
     1
281
     0
  0
BLOCK_RECORD
  5
2B5
330
1
100
AcDbSymbolTableRecord
100
AcDbBlockTableRecord
  2
*D2
340
0
 70
     0
280
     1
281
     0
  0
BLOCK_RECORD
  5
2C2
330
1
100
AcDbSymbolTableRecord
100
AcDbBlockTableRecord
  2
*D3
340
0
 70
     0
280
     1
281
     0
  0
BLOCK_RECORD
  5
2CF
330
1
100
AcDbSymbolTableRecord
100
AcDbBlockTableRecord
  2
*D4
340
0
 70
     0
280
     1
281
     0
  0
BLOCK_RECORD
  5
2DB
330
1
100
AcDbSymbolTableRecord
100
AcDbBlockTableRecord
  2
*D5
340
0
 70
     0
280
     1
281
     0
  0
ENDTAB
  0
ENDSEC
  0
SECTION
  2
BLOCKS
  0
BLOCK
  5
71
330
70
100
AcDbEntity
  8
0
100
AcDbBlockBegin
  2
*Model_Space
 70
     0
 10
0.0
 20
0.0
 30
0.0
  3
*Model_Space
  1

  0
ENDBLK
  5
72
330
70
100
AcDbEntity
  8
0
100
AcDbBlockEnd
  0
BLOCK
  5
6D
330
6C
100
AcDbEntity
 67
     1
  8
0
100
AcDbBlockBegin
  2
*Paper_Space
 70
     0
 10
0.0
 20
0.0
 30
0.0
  3
*Paper_Space
  1

  0
ENDBLK
  5
6E
330
6C
100
AcDbEntity
 67
     1
  8
0
100
AcDbBlockEnd
  0
BLOCK
  5
75
330
74
100
AcDbEntity
 67
     1
  8
0
100
AcDbBlockBegin
  2
*Paper_Space0
 70
     0
 10
0.0
 20
0.0
 30
0.0
  3
*Paper_Space0
  1

  0
ENDBLK
  5
76
330
74
100
AcDbEntity
 67
     1
  8
0
100
AcDbBlockEnd
  0
BLOCK
  5
2B6
330
2B5
100
AcDbEntity
  8
0
100
AcDbBlockBegin
  2
*D2
 70
     1
 10
0.0
 20
0.0
 30
0.0
  3
*D2
  1

  0
LINE
  5
2B7
330
2B5
100
AcDbEntity
  8
FD_Dimensions
 62
     0
440
 16777216
370
    -2
100
AcDbLine
 10
184.038219
 20
255.493362
 30
0.0
 11
184.038219
 21
265.993362
 31
0.0
  0
LINE
  5
2B8
330
2B5
100
AcDbEntity
  8
FD_Dimensions
 62
     0
440
 16777216
370
    -2
100
AcDbLine
 10
174.038219
 20
255.493362
 30
0.0
 11
174.038219
 21
265.993362
 31
0.0
  0
LINE
  5
2B9
330
2B5
100
AcDbEntity
  8
FD_Dimensions
 62
     0
440
 16777216
370
    -2
100
AcDbLine
 10
180.538219
 20
263.893362
 30
0.0
 11
177.538219
 21
263.893362
 31
0.0
  0
SOLID
  5
2BA
330
2B5
100
AcDbEntity
  8
FD_Dimensions
 62
     0
440
 16777216
100
AcDbTrace
 10
180.538219
 20
264.476695
 30
0.0
 11
180.538219
 21
263.310028
 31
0.0
 12
184.038219
 22
263.893362
 32
0.0
 13
184.038219
 23
263.893362
 33
0.0
  0
SOLID
  5
2BB
330
2B5
100
AcDbEntity
  8
FD_Dimensions
 62
     0
440
 16777216
100
AcDbTrace
 10
177.538219
 20
264.476695
 30
0.0
 11
177.538219
 21
263.310028
 31
0.0
 12
174.038219
 22
263.893362
 32
0.0
 13
174.038219
 23
263.893362
 33
0.0
  0
MTEXT
  5
2BC
330
2B5
100
AcDbEntity
  8
FD_Dimensions
 62
     0
440
 16777216
100
AcDbMText
 10
179.038219
 20
267.080367
 30
0.0
 40
3.5
 41
0.0
 46
0.0
 71
     5
 72
     1
  1
10
 73
     1
 44
1.0
  0
POINT
  5
2BD
330
2B5
100
AcDbEntity
  8
Defpoints
 62
     0
440
 16777216
100
AcDbPoint
 10
184.038219
 20
253.393362
 30
0.0
  0
POINT
  5
2BE
330
2B5
100
AcDbEntity
  8
Defpoints
 62
     0
440
 16777216
100
AcDbPoint
 10
174.038219
 20
253.393362
 30
0.0
  0
POINT
  5
2BF
330
2B5
100
AcDbEntity
  8
Defpoints
 62
     0
440
 16777216
100
AcDbPoint
 10
174.038219
 20
263.893362
 30
0.0
  0
ENDBLK
  5
2C0
330
2B5
100
AcDbEntity
  8
0
100
AcDbBlockEnd
  0
BLOCK
  5
2C3
330
2C2
100
AcDbEntity
  8
0
100
AcDbBlockBegin
  2
*D3
 70
     1
 10
0.0
 20
0.0
 30
0.0
  3
*D3
  1

  0
LINE
  5
2C4
330
2C2
100
AcDbEntity
  8
FD_Dimensions
 62
     0
440
 16777216
370
    -2
100
AcDbLine
 10
186.138219
 20
243.393362
 30
0.0
 11
196.638219
 21
243.393362
 31
0.0
  0
LINE
  5
2C5
330
2C2
100
AcDbEntity
  8
FD_Dimensions
 62
     0
440
 16777216
370
    -2
100
AcDbLine
 10
186.138219
 20
253.393362
 30
0.0
 11
196.638219
 21
253.393362
 31
0.0
  0
LINE
  5
2C6
330
2C2
100
AcDbEntity
  8
FD_Dimensions
 62
     0
440
 16777216
370
    -2
100
AcDbLine
 10
194.538219
 20
246.893362
 30
0.0
 11
194.538219
 21
249.893362
 31
0.0
  0
SOLID
  5
2C7
330
2C2
100
AcDbEntity
  8
FD_Dimensions
 62
     0
440
 16777216
100
AcDbTrace
 10
193.954886
 20
246.893362
 30
0.0
 11
195.121552
 21
246.893362
 31
0.0
 12
194.538219
 22
243.393362
 32
0.0
 13
194.538219
 23
243.393362
 33
0.0
  0
SOLID
  5
2C8
330
2C2
100
AcDbEntity
  8
FD_Dimensions
 62
     0
440
 16777216
100
AcDbTrace
 10
193.954886
 20
249.893362
 30
0.0
 11
195.121552
 21
249.893362
 31
0.0
 12
194.538219
 22
253.393362
 32
0.0
 13
194.538219
 23
253.393362
 33
0.0
  0
MTEXT
  5
2C9
330
2C2
100
AcDbEntity
  8
FD_Dimensions
 62
     0
440
 16777216
100
AcDbMText
 10
191.351213
 20
248.393362
 30
0.0
 40
3.5
 41
0.0
 46
0.0
 71
     5
 72
     1
  1
10
 11
0.0
 21
1.0
 31
0.0
 73
     1
 44
1.0
  0
POINT
  5
2CA
330
2C2
100
AcDbEntity
  8
Defpoints
 62
     0
440
 16777216
100
AcDbPoint
 10
184.038219
 20
243.393362
 30
0.0
  0
POINT
  5
2CB
330
2C2
100
AcDbEntity
  8
Defpoints
 62
     0
440
 16777216
100
AcDbPoint
 10
184.038219
 20
253.393362
 30
0.0
  0
POINT
  5
2CC
330
2C2
100
AcDbEntity
  8
Defpoints
 62
     0
440
 16777216
100
AcDbPoint
 10
194.538219
 20
253.393362
 30
0.0
  0
ENDBLK
  5
2CD
330
2C2
100
AcDbEntity
  8
0
100
AcDbBlockEnd
  0
BLOCK
  5
2D0
330
2CF
100
AcDbEntity
  8
0
100
AcDbBlockBegin
  2
*D4
 70
     1
 10
0.0
 20
0.0
 30
0.0
  3
*D4
  1

  0
LINE
  5
537
330
2CF
100
AcDbEntity
  8
FD_Dimensions
 62
     0
440
 16777216
370
    -2
100
AcDbLine
 10
184.038219
 20
255.493362
 30
0.0
 11
184.038219
 21
265.993362
 31
0.0
  0
LINE
  5
538
330
2CF
100
AcDbEntity
  8
FD_Dimensions
 62
     0
440
 16777216
370
    -2
100
AcDbLine
 10
174.038219
 20
255.493362
 30
0.0
 11
174.038219
 21
265.993362
 31
0.0
  0
LINE
  5
539
330
2CF
100
AcDbEntity
  8
FD_Dimensions
 62
     0
440
 16777216
370
    -2
100
AcDbLine
 10
180.538219
 20
263.893362
 30
0.0
 11
177.538219
 21
263.893362
 31
0.0
  0
SOLID
  5
53A
330
2CF
100
AcDbEntity
  8
FD_Dimensions
 62
     0
440
 16777216
100
AcDbTrace
 10
180.538219
 20
264.476695
 30
0.0
 11
180.538219
 21
263.310028
 31
0.0
 12
184.038219
 22
263.893362
 32
0.0
 13
184.038219
 23
263.893362
 33
0.0
  0
SOLID
  5
53B
330
2CF
100
AcDbEntity
  8
FD_Dimensions
 62
     0
440
 16777216
100
AcDbTrace
 10
177.538219
 20
264.476695
 30
0.0
 11
177.538219
 21
263.310028
 31
0.0
 12
174.038219
 22
263.893362
 32
0.0
 13
174.038219
 23
263.893362
 33
0.0
  0
MTEXT
  5
53C
330
2CF
100
AcDbEntity
  8
FD_Dimensions
 62
     0
440
 16777216
100
AcDbMText
 10
179.038219
 20
267.080367
 30
0.0
 40
3.5
 41
0.0
 46
0.0
 71
     5
 72
     1
  1
10
 73
     1
 44
1.0
  0
POINT
  5
53D
330
2CF
100
AcDbEntity
  8
Defpoints
 62
     0
440
 16777216
100
AcDbPoint
 10
184.038219
 20
253.393362
 30
0.0
  0
POINT
  5
53E
330
2CF
100
AcDbEntity
  8
Defpoints
 62
     0
440
 16777216
100
AcDbPoint
 10
174.038219
 20
253.393362
 30
0.0
  0
POINT
  5
53F
330
2CF
100
AcDbEntity
  8
Defpoints
 62
     0
440
 16777216
100
AcDbPoint
 10
174.038219
 20
263.893362
 30
0.0
  0
ENDBLK
  5
2D1
330
2CF
100
AcDbEntity
  8
0
100
AcDbBlockEnd
  0
BLOCK
  5
2DC
330
2DB
100
AcDbEntity
  8
0
100
AcDbBlockBegin
  2
*D5
 70
     1
 10
0.0
 20
0.0
 30
0.0
  3
*D5
  1

  0
LINE
  5
540
330
2DB
100
AcDbEntity
  8
FD_Dimensions
 62
     0
440
 16777216
370
    -2
100
AcDbLine
 10
186.138219
 20
243.393362
 30
0.0
 11
196.638219
 21
243.393362
 31
0.0
  0
LINE
  5
541
330
2DB
100
AcDbEntity
  8
FD_Dimensions
 62
     0
440
 16777216
370
    -2
100
AcDbLine
 10
186.138219
 20
253.393362
 30
0.0
 11
196.638219
 21
253.393362
 31
0.0
  0
LINE
  5
542
330
2DB
100
AcDbEntity
  8
FD_Dimensions
 62
     0
440
 16777216
370
    -2
100
AcDbLine
 10
194.538219
 20
246.893362
 30
0.0
 11
194.538219
 21
249.893362
 31
0.0
  0
SOLID
  5
543
330
2DB
100
AcDbEntity
  8
FD_Dimensions
 62
     0
440
 16777216
100
AcDbTrace
 10
193.954886
 20
246.893362
 30
0.0
 11
195.121552
 21
246.893362
 31
0.0
 12
194.538219
 22
243.393362
 32
0.0
 13
194.538219
 23
243.393362
 33
0.0
  0
SOLID
  5
544
330
2DB
100
AcDbEntity
  8
FD_Dimensions
 62
     0
440
 16777216
100
AcDbTrace
 10
193.954886
 20
249.893362
 30
0.0
 11
195.121552
 21
249.893362
 31
0.0
 12
194.538219
 22
253.393362
 32
0.0
 13
194.538219
 23
253.393362
 33
0.0
  0
MTEXT
  5
545
330
2DB
100
AcDbEntity
  8
FD_Dimensions
 62
     0
440
 16777216
100
AcDbMText
 10
191.351213
 20
248.393362
 30
0.0
 40
3.5
 41
0.0
 46
0.0
 71
     5
 72
     1
  1
10
 11
0.0
 21
1.0
 31
0.0
 73
     1
 44
1.0
  0
POINT
  5
546
330
2DB
100
AcDbEntity
  8
Defpoints
 62
     0
440
 16777216
100
AcDbPoint
 10
184.038219
 20
243.393362
 30
0.0
  0
POINT
  5
547
330
2DB
100
AcDbEntity
  8
Defpoints
 62
     0
440
 16777216
100
AcDbPoint
 10
184.038219
 20
253.393362
 30
0.0
  0
POINT
  5
548
330
2DB
100
AcDbEntity
  8
Defpoints
 62
     0
440
 16777216
100
AcDbPoint
 10
194.538219
 20
253.393362
 30
0.0
  0
ENDBLK
  5
2DD
330
2DB
100
AcDbEntity
  8
0
100
AcDbBlockEnd
  0
ENDSEC
  0
SECTION
  2
ENTITIES
  0
DIMENSION
  5
2B3
330
70
100
AcDbEntity
  8
FD_Dimensions
100
AcDbDimension
280
     0
  2
*D4
 10
174.038219
 20
263.893362
 30
0.0
 11
179.038219
 21
267.080367
 31
0.0
 70
    33
 71
     5
 42
10.0
 73
     0
 74
     0
 75
     0
  3
Dim-ISO-25
100
AcDbAlignedDimension
 13
184.038219
 23
253.393362
 33
0.0
 14
174.038219
 24
253.393362
 34
0.0
1001
ACAD_DIMASSOC_CALC_DIMLFAC
1040
-1.0
1001
ACAD_DIMASSOC_DIMLFAC
1040
-1.0
1001
ACAD_DIMASSOC_OVERRIDDEN_DIMLFAC
1040
0.0
1001
ACAD_TC
1000
DSTYLE_TC
1002
{
1070
   176
1004
18000000020000008C8C8CC2000000000000000000000000
1070
   177
1004
18000000020000008C8C8CC2000000000000000000000000
1002
}
1001
ACAD_DSTYLE_DIMJAG_POSITION
1070
   387
1070
     0
1070
   389
1010
0.0
1020
0.0
1030
0.0
1001
ACAD
1000
DSTYLE
1002
{
1070
   144
1040
1.0
1070
   176
1070
     0
1070
   177
1070
     0
1002
}
  0
DIMENSION
  5
2C1
330
70
100
AcDbEntity
  8
FD_Dimensions
100
AcDbDimension
280
     0
  2
*D5
 10
194.538219
 20
253.393362
 30
0.0
 11
191.351213
 21
248.393362
 31
0.0
 70
    33
 71
     5
 42
10.0
 73
     0
 74
     0
 75
     0
  3
Dim-ISO-25
100
AcDbAlignedDimension
 13
184.038219
 23
243.393362
 33
0.0
 14
184.038219
 24
253.393362
 34
0.0
1001
ACAD_DIMASSOC_CALC_DIMLFAC
1040
-1.0
1001
ACAD_DIMASSOC_DIMLFAC
1040
-1.0
1001
ACAD_DIMASSOC_OVERRIDDEN_DIMLFAC
1040
0.0
1001
ACAD_TC
1000
DSTYLE_TC
1002
{
1070
   176
1004
18000000020000008C8C8CC2000000000000000000000000
1070
   177
1004
18000000020000008C8C8CC2000000000000000000000000
1002
}
1001
ACAD_DSTYLE_DIMJAG_POSITION
1070
   387
1070
     0
1070
   389
1010
0.0
1020
0.0
1030
0.0
1001
ACAD
1000
DSTYLE
1002
{
1070
   144
1040
1.0
1070
   176
1070
     0
1070
   177
1070
     0
1002
}
  0
SPLINE
  5
31D
330
70
100
AcDbEntity
  8
Visible
100
AcDbSpline
210
0.0
220
0.0
230
1.0
 70
    12
 71
     3
 72
     8
 73
     4
 74
     0
 42
0.000000001
 43
0.0000000001
 40
0.0
 40
0.0
 40
0.0
 40
0.0
 40
1.0
 40
1.0
 40
1.0
 40
1.0
 10
49.86756358354615
 20
210.4387180493377
 30
0.0
 41
1.0
 10
49.90289716650295
 20
211.8167466551022
 30
0.0
 41
1.0
 10
51.0689242745284
 20
212.9827737631258
 30
0.0
 41
1.0
 10
52.44695557607156
 20
213.0181100418631
 30
0.0
 41
1.0
  0
SPLINE
  5
31E
330
70
100
AcDbEntity
  8
Visible
100
AcDbSpline
210
0.0
220
0.0
230
1.0
 70
    12
 71
     3
 72
     8
 73
     4
 74
     0
 42
0.000000001
 43
0.0000000001
 40
0.0
 40
0.0
 40
0.0
 40
0.0
 40
1.0
 40
1.0
 40
1.0
 40
1.0
 10
52.48228915902837
 20
207.7886588909005
 30
0.0
 41
1.0
 10
51.03359069157159
 20
207.7886588909005
 30
0.0
 41
1.0
 10
49.86756358354615
 20
208.9900168861023
 30
0.0
 41
1.0
 10
49.86756358354615
 20
210.4387180493377
 30
0.0
 41
1.0
  0
SPLINE
  5
31F
330
70
100
AcDbEntity
  8
Visible
100
AcDbSpline
210
0.0
220
0.0
230
1.0
 70
    12
 71
     3
 72
     8
 73
     4
 74
     0
 42
0.000000001
 43
0.0000000001
 40
0.0
 40
0.0
 40
0.0
 40
0.0
 40
1.0
 40
1.0
 40
1.0
 40
1.0
 10
55.09701473450878
 20
210.4033871621614
 30
0.0
 41
1.0
 10
55.06168115155197
 20
208.9546859989241
 30
0.0
 41
1.0
 10
53.89565404352834
 20
207.7886588909005
 30
0.0
 41
1.0
 10
52.48228915902837
 20
207.7886588909005
 30
0.0
 41
1.0
  0
SPLINE
  5
320
330
70
100
AcDbEntity
  8
Visible
100
AcDbSpline
210
0.0
220
0.0
230
1.0
 70
    12
 71
     3
 72
     8
 73
     4
 74
     0
 42
0.000000001
 43
0.0000000001
 40
0.0
 40
0.0
 40
0.0
 40
0.0
 40
1.0
 40
1.0
 40
1.0
 40
1.0
 10
52.44695557607156
 20
213.0181100418631
 30
0.0
 41
1.0
 10
53.89565404352834
 20
213.0534463205986
 30
0.0
 41
1.0
 10
55.09701473450878
 20
211.8520829338377
 30
0.0
 41
1.0
 10
55.09701473450878
 20
210.4033871621614
 30
0.0
 41
1.0
  0
SPLINE
  5
321
330
70
100
AcDbEntity
  8
Visible
100
AcDbSpline
210
0.0
220
0.0
230
1.0
 70
    12
 71
     3
 72
     8
 73
     4
 74
     0
 42
0.000000001
 43
0.0000000001
 40
0.0
 40
0.0
 40
0.0
 40
0.0
 40
1.0
 40
1.0
 40
1.0
 40
1.0
 10
56.12170751070698
 20
204.7499222326023
 30
0.0
 41
1.0
 10
56.40438156591881
 20
204.5379153433023
 30
0.0
 41
1.0
 10
56.75772278704426
 20
204.7499222326023
 30
0.0
 41
1.0
 10
56.75772278704426
 20
205.0679271749905
 30
0.0
 41
1.0
  0
SPLINE
  5
322
330
70
100
AcDbEntity
  8
Visible
100
AcDbSpline
210
0.0
220
0.0
230
1.0
 70
    12
 71
     3
 72
     8
 73
     4
 74
     0
 42
0.000000001
 43
0.0000000001
 40
0.0
 40
0.0
 40
0.0
 40
0.0
 40
1.0
 40
1.0
 40
1.0
 40
1.0
 10
54.31966782212476
 20
205.3506012302023
 30
0.0
 41
1.0
 10
54.56700559860109
 20
205.3506012302023
 30
0.0
 41
1.0
 10
55.34435790254429
 20
205.3152649514668
 30
0.0
 41
1.0
 10
56.12170751070698
 20
204.7499222326023
 30
0.0
 41
1.0
  0
LINE
  5
323
330
70
100
AcDbEntity
  8
Visible
100
AcDbLine
 10
52.446958
 20
205.350601
 30
0.0
 11
54.319668
 21
205.350601
 31
0.0
  0
SPLINE
  5
324
330
70
100
AcDbEntity
  8
Visible
100
AcDbSpline
210
0.0
220
0.0
230
1.0
 70
    12
 71
     3
 72
     8
 73
     4
 74
     0
 42
0.000000001
 43
0.0000000001
 40
0.0
 40
0.0
 40
0.0
 40
0.0
 40
1.0
 40
1.0
 40
1.0
 40
1.0
 10
47.46484759314443
 20
210.9333936022886
 30
0.0
 41
1.0
 10
47.1468399549758
 20
207.9299932227259
 30
0.0
 41
1.0
 10
49.47889282313553
 20
205.3506012302023
 30
0.0
 41
1.0
 10
52.44695827185023
 20
205.3506012302023
 30
0.0
 41
1.0
  0
SPLINE
  5
325
330
70
100
AcDbEntity
  8
Visible
100
AcDbSpline
210
0.0
220
0.0
230
1.0
 70
    12
 71
     3
 72
     8
 73
     4
 74
     0
 42
0.000000001
 43
0.0000000001
 40
0.0
 40
0.0
 40
0.0
 40
0.0
 40
1.0
 40
1.0
 40
1.0
 40
1.0
 10
52.58829529945614
 20
215.3854951450885
 30
0.0
 41
1.0
 10
50.00890465482189
 20
215.3854951450885
 30
0.0
 41
1.0
 10
47.74752030046693
 20
213.512785594814
 30
0.0
 41
1.0
 10
47.46484759314443
 20
210.9333936022886
 30
0.0
 41
1.0
  0
LINE
  5
326
330
70
100
AcDbEntity
  8
Visible
100
AcDbLine
 10
54.355001
 20
215.385495
 30
0.0
 11
52.588295
 21
215.385495
 31
0.0
  0
SPLINE
  5
327
330
70
100
AcDbEntity
  8
Visible
100
AcDbSpline
210
0.0
220
0.0
230
1.0
 70
    12
 71
     3
 72
     8
 73
     4
 74
     0
 42
0.000000001
 43
0.0000000001
 40
0.0
 40
0.0
 40
0.0
 40
0.0
 40
1.0
 40
1.0
 40
1.0
 40
1.0
 10
55.23835445789519
 20
215.5268321726944
 30
0.0
 41
1.0
 10
54.92034681972654
 20
215.4208287280453
 30
0.0
 41
1.0
 10
54.60233918155791
 20
215.3854951450885
 30
0.0
 41
1.0
 10
54.35500140508157
 20
215.3854951450885
 30
0.0
 41
1.0
  0
SPLINE
  5
328
330
70
100
AcDbEntity
  8
Visible
100
AcDbSpline
210
0.0
220
0.0
230
1.0
 70
    12
 71
     3
 72
     8
 73
     4
 74
     0
 42
0.000000001
 43
0.0000000001
 40
0.0
 40
0.0
 40
0.0
 40
0.0
 40
1.0
 40
1.0
 40
1.0
 40
1.0
 10
56.01570406605787
 20
215.9155069767749
 30
0.0
 41
1.0
 10
55.80369987253835
 20
215.774169949169
 30
0.0
 41
1.0
 10
55.52102581732651
 20
215.632832921563
 30
0.0
 41
1.0
 10
55.23835445789519
 20
215.5268321726944
 30
0.0
 41
1.0
  0
SPLINE
  5
329
330
70
100
AcDbEntity
  8
Visible
100
AcDbSpline
210
0.0
220
0.0
230
1.0
 70
    12
 71
     3
 72
     8
 73
     4
 74
     0
 42
0.000000001
 43
0.0000000001
 40
0.0
 40
0.0
 40
0.0
 40
0.0
 40
1.0
 40
1.0
 40
1.0
 40
1.0
 10
56.79305367422057
 20
215.4914985897376
 30
0.0
 41
1.0
 10
56.79305367422057
 20
215.880173393818
 30
0.0
 41
1.0
 10
56.33370900844602
 20
216.1275138660749
 30
0.0
 41
1.0
 10
56.01570406605787
 20
215.9155069767749
 30
0.0
 41
1.0
  0
LINE
  5
32A
330
70
100
AcDbEntity
  8
Visible
100
AcDbLine
 10
56.757723
 20
205.067927
 30
0.0
 11
56.793054
 21
215.491499
 31
0.0
  0
SPLINE
  5
32B
330
70
100
AcDbEntity
  8
Visible
100
AcDbSpline
210
0.0
220
0.0
230
1.0
 70
    12
 71
     3
 72
     8
 73
     4
 74
     0
 42
0.000000001
 43
0.0000000001
 40
0.0
 40
0.0
 40
0.0
 40
0.0
 40
1.0
 40
1.0
 40
1.0
 40
1.0
 10
50.32690824932069
 20
236.8333088848431
 30
0.0
 41
1.0
 10
50.36224183227751
 20
238.2113401863862
 30
0.0
 41
1.0
 10
51.52826894030295
 20
239.3773659465205
 30
0.0
 41
1.0
 10
52.90630024184611
 20
239.4126995294773
 30
0.0
 41
1.0
  0
SPLINE
  5
32C
330
70
100
AcDbEntity
  8
Visible
100
AcDbSpline
210
0.0
220
0.0
230
1.0
 70
    12
 71
     3
 72
     8
 73
     4
 74
     0
 42
0.000000001
 43
0.0000000001
 40
0.0
 40
0.0
 40
0.0
 40
0.0
 40
1.0
 40
1.0
 40
1.0
 40
1.0
 10
52.94163382480292
 20
234.1832497264058
 30
0.0
 41
1.0
 10
51.49293535734614
 20
234.1832497264058
 30
0.0
 41
1.0
 10
50.32690824932069
 20
235.3846104173863
 30
0.0
 41
1.0
 10
50.32690824932069
 20
236.8333088848431
 30
0.0
 41
1.0
  0
SPLINE
  5
32D
330
70
100
AcDbEntity
  8
Visible
100
AcDbSpline
210
0.0
220
0.0
230
1.0
 70
    12
 71
     3
 72
     8
 73
     4
 74
     0
 42
0.000000001
 43
0.0000000001
 40
0.0
 40
0.0
 40
0.0
 40
0.0
 40
1.0
 40
1.0
 40
1.0
 40
1.0
 10
55.55635940028333
 20
236.7979753018862
 30
0.0
 41
1.0
 10
55.52102581732651
 20
235.3492768344295
 30
0.0
 41
1.0
 10
54.35499870930289
 20
234.1832497264058
 30
0.0
 41
1.0
 10
52.94163382480292
 20
234.1832497264058
 30
0.0
 41
1.0
  0
SPLINE
  5
32E
330
70
100
AcDbEntity
  8
Visible
100
AcDbSpline
210
0.0
220
0.0
230
1.0
 70
    12
 71
     3
 72
     8
 73
     4
 74
     0
 42
0.000000001
 43
0.0000000001
 40
0.0
 40
0.0
 40
0.0
 40
0.0
 40
1.0
 40
1.0
 40
1.0
 40
1.0
 10
52.90630024184611
 20
239.4126995294773
 30
0.0
 41
1.0
 10
54.35499870930289
 20
239.4480331124341
 30
0.0
 41
1.0
 10
55.55635940028333
 20
238.246673769343
 30
0.0
 41
1.0
 10
55.55635940028333
 20
236.7979753018862
 30
0.0
 41
1.0
  0
SPLINE
  5
32F
330
70
100
AcDbEntity
  8
Visible
100
AcDbSpline
210
0.0
220
0.0
230
1.0
 70
    12
 71
     3
 72
     8
 73
     4
 74
     0
 42
0.000000001
 43
0.0000000001
 40
0.0
 40
0.0
 40
0.0
 40
0.0
 40
1.0
 40
1.0
 40
1.0
 40
1.0
 10
56.58104948070104
 20
231.1798493468432
 30
0.0
 41
1.0
 10
56.86372353591287
 20
230.9678451533236
 30
0.0
 41
1.0
 10
57.21706475703832
 20
231.1798493468432
 30
0.0
 41
1.0
 10
57.21706475703832
 20
231.4978569850118
 30
0.0
 41
1.0
  0
SPLINE
  5
330
330
70
100
AcDbEntity
  8
Visible
100
AcDbSpline
210
0.0
220
0.0
230
1.0
 70
    12
 71
     3
 72
     8
 73
     4
 74
     0
 42
0.000000001
 43
0.0000000001
 40
0.0
 40
0.0
 40
0.0
 40
0.0
 40
1.0
 40
1.0
 40
1.0
 40
1.0
 10
54.77900979212063
 20
231.7805283444432
 30
0.0
 41
1.0
 10
55.02634756859515
 20
231.7805283444432
 30
0.0
 41
1.0
 10
55.80369987253835
 20
231.7451947614882
 30
0.0
 41
1.0
 10
56.58104948070104
 20
231.1798493468432
 30
0.0
 41
1.0
  0
LINE
  5
331
330
70
100
AcDbEntity
  8
Visible
100
AcDbLine
 10
52.9063
 20
231.780528
 30
0.0
 11
54.77901
 21
231.780528
 31
0.0
  0
SPLINE
  5
332
330
70
100
AcDbEntity
  8
Visible
100
AcDbSpline
210
0.0
220
0.0
230
1.0
 70
    12
 71
     3
 72
     8
 73
     4
 74
     0
 42
0.000000001
 43
0.0000000001
 40
0.0
 40
0.0
 40
0.0
 40
0.0
 40
1.0
 40
1.0
 40
1.0
 40
1.0
 10
47.92418956313849
 20
237.3633207165312
 30
0.0
 41
1.0
 10
47.60618192496986
 20
234.3245867540117
 30
0.0
 41
1.0
 10
49.93823479312959
 20
231.7805283444432
 30
0.0
 41
1.0
 10
52.90630024184611
 20
231.7805283444432
 30
0.0
 41
1.0
  0
SPLINE
  5
333
330
70
100
AcDbEntity
  8
Visible
100
AcDbSpline
210
0.0
220
0.0
230
1.0
 70
    12
 71
     3
 72
     8
 73
     4
 74
     0
 42
0.000000001
 43
0.0000000001
 40
0.0
 40
0.0
 40
0.0
 40
0.0
 40
1.0
 40
1.0
 40
1.0
 40
1.0
 10
53.04763726945203
 20
241.81542091144
 30
0.0
 41
1.0
 10
50.46824527692661
 20
241.81542091144
 30
0.0
 41
1.0
 10
48.20686227046099
 20
239.9427127090548
 30
0.0
 41
1.0
 10
47.92418956313849
 20
237.3633207165312
 30
0.0
 41
1.0
  0
LINE
  5
334
330
70
100
AcDbEntity
  8
Visible
100
AcDbLine
 10
54.814343
 20
241.815421
 30
0.0
 11
53.047637
 21
241.815421
 31
0.0
  0
SPLINE
  5
335
330
70
100
AcDbEntity
  8
Visible
100
AcDbSpline
210
0.0
220
0.0
230
1.0
 70
    12
 71
     3
 72
     8
 73
     4
 74
     0
 42
0.000000001
 43
0.0000000001
 40
0.0
 40
0.0
 40
0.0
 40
0.0
 40
1.0
 40
1.0
 40
1.0
 40
1.0
 10
55.69769642788924
 20
241.9567579390459
 30
0.0
 41
1.0
 10
55.3796887897206
 20
241.8507558422862
 30
0.0
 41
1.0
 10
55.06168115155197
 20
241.81542091144
 30
0.0
 41
1.0
 10
54.81434337507744
 20
241.81542091144
 30
0.0
 41
1.0
  0
SPLINE
  5
336
330
70
100
AcDbEntity
  8
Visible
100
AcDbSpline
210
0.0
220
0.0
230
1.0
 70
    12
 71
     3
 72
     8
 73
     4
 74
     0
 42
0.000000001
 43
0.0000000001
 40
0.0
 40
0.0
 40
0.0
 40
0.0
 40
1.0
 40
1.0
 40
1.0
 40
1.0
 10
56.47504603605193
 20
242.3454327431264
 30
0.0
 41
1.0
 10
56.2630418425324
 20
242.2040957155204
 30
0.0
 41
1.0
 10
55.98036778732057
 20
242.0627600358057
 30
0.0
 41
1.0
 10
55.69769642788924
 20
241.9567579390459
 30
0.0
 41
1.0
  0
SPLINE
  5
337
330
70
100
AcDbEntity
  8
Visible
100
AcDbSpline
210
0.0
220
0.0
230
1.0
 70
    12
 71
     3
 72
     8
 73
     4
 74
     0
 42
0.000000001
 43
0.0000000001
 40
0.0
 40
0.0
 40
0.0
 40
0.0
 40
1.0
 40
1.0
 40
1.0
 40
1.0
 10
57.25239564421463
 20
241.9214230081998
 30
0.0
 41
1.0
 10
57.25239564421463
 20
242.3100978122802
 30
0.0
 41
1.0
 10
56.79305097844189
 20
242.5574369366459
 30
0.0
 41
1.0
 10
56.47504603605193
 20
242.3454327431264
 30
0.0
 41
1.0
  0
LINE
  5
338
330
70
100
AcDbEntity
  8
Visible
100
AcDbLine
 10
57.217065
 20
231.497857
 30
0.0
 11
57.252396
 21
241.921423
 31
0.0
  0
SPLINE
  5
339
330
70
100
AcDbEntity
  8
Visible
100
AcDbSpline
210
0.0
220
0.0
230
1.0
 70
    12
 71
     3
 72
     8
 73
     4
 74
     0
 42
0.000000001
 43
0.0000000001
 40
0.0
 40
0.0
 40
0.0
 40
0.0
 40
1.0
 40
1.0
 40
1.0
 40
1.0
 10
102.5507391141291
 20
250.8962898899845
 30
0.0
 41
1.0
 10
101.1727105083646
 20
250.931624146886
 30
0.0
 41
1.0
 10
100.006683400341
 20
252.0976499070221
 30
0.0
 41
1.0
 10
99.97134712160551
 20
253.4756812085652
 30
0.0
 41
1.0
  0
SPLINE
  5
33A
330
70
100
AcDbEntity
  8
Visible
100
AcDbSpline
210
0.0
220
0.0
230
1.0
 70
    12
 71
     3
 72
     8
 73
     4
 74
     0
 42
0.000000001
 43
0.0000000001
 40
0.0
 40
0.0
 40
0.0
 40
0.0
 40
1.0
 40
1.0
 40
1.0
 40
1.0
 10
105.2007982725663
 20
253.511014791522
 30
0.0
 41
1.0
 10
105.2007982725663
 20
252.0623156501206
 30
0.0
 41
1.0
 10
103.9994402773645
 20
250.8962898899845
 30
0.0
 41
1.0
 10
102.5507391141291
 20
250.8962898899845
 30
0.0
 41
1.0
  0
SPLINE
  5
33B
330
70
100
AcDbEntity
  8
Visible
100
AcDbSpline
210
0.0
220
0.0
230
1.0
 70
    12
 71
     3
 72
     8
 73
     4
 74
     0
 42
0.000000001
 43
0.0000000001
 40
0.0
 40
0.0
 40
0.0
 40
0.0
 40
1.0
 40
1.0
 40
1.0
 40
1.0
 10
102.5860700013054
 20
256.1257403670024
 30
0.0
 41
1.0
 10
104.0347657729835
 20
256.1257403670024
 30
0.0
 41
1.0
 10
105.2007982725663
 20
254.9597139329235
 30
0.0
 41
1.0
 10
105.2007982725663
 20
253.511014791522
 30
0.0
 41
1.0
  0
SPLINE
  5
33C
330
70
100
AcDbEntity
  8
Visible
100
AcDbSpline
210
0.0
220
0.0
230
1.0
 70
    12
 71
     3
 72
     8
 73
     4
 74
     0
 42
0.000000001
 43
0.0000000001
 40
0.0
 40
0.0
 40
0.0
 40
0.0
 40
1.0
 40
1.0
 40
1.0
 40
1.0
 10
99.97134712160551
 20
253.4756812085652
 30
0.0
 41
1.0
 10
99.93601084286821
 20
254.9243803499667
 30
0.0
 41
1.0
 10
101.1373742296291
 20
256.1257403670024
 30
0.0
 41
1.0
 10
102.5860700013054
 20
256.1257403670024
 30
0.0
 41
1.0
  0
SPLINE
  5
33D
330
70
100
AcDbEntity
  8
Visible
100
AcDbSpline
210
0.0
220
0.0
230
1.0
 70
    12
 71
     3
 72
     8
 73
     4
 74
     0
 42
0.000000001
 43
0.0000000001
 40
0.0
 40
0.0
 40
0.0
 40
0.0
 40
1.0
 40
1.0
 40
1.0
 40
1.0
 10
108.2042040436881
 20
257.185764030377
 30
0.0
 41
1.0
 10
108.4162109329863
 20
257.4684370746727
 30
0.0
 41
1.0
 10
108.2042040436881
 20
257.8217782957963
 30
0.0
 41
1.0
 10
107.8861991013
 20
257.8217782957963
 30
0.0
 41
1.0
  0
SPLINE
  5
33E
330
70
100
AcDbEntity
  8
Visible
100
AcDbSpline
210
0.0
220
0.0
230
1.0
 70
    12
 71
     3
 72
     8
 73
     4
 74
     0
 42
0.000000001
 43
0.0000000001
 40
0.0
 40
0.0
 40
0.0
 40
0.0
 40
1.0
 40
1.0
 40
1.0
 40
1.0
 10
107.6035250460882
 20
255.3837240048233
 30
0.0
 41
1.0
 10
107.6035250460882
 20
255.6310627922158
 30
0.0
 41
1.0
 10
107.6388613248236
 20
256.4084137482696
 30
0.0
 41
1.0
 10
108.2042040436881
 20
257.185764030377
 30
0.0
 41
1.0
  0
LINE
  5
33F
330
70
100
AcDbEntity
  8
Visible
100
AcDbLine
 10
107.603525
 20
253.511015
 30
0.0
 11
107.603525
 21
255.383724
 31
0.0
  0
SPLINE
  5
340
330
70
100
AcDbEntity
  8
Visible
100
AcDbSpline
210
0.0
220
0.0
230
1.0
 70
    12
 71
     3
 72
     8
 73
     4
 74
     0
 42
0.000000001
 43
0.0000000001
 40
0.0
 40
0.0
 40
0.0
 40
0.0
 40
1.0
 40
1.0
 40
1.0
 40
1.0
 10
102.0207326740001
 20
248.5289041128144
 30
0.0
 41
1.0
 10
105.0241330535627
 20
248.2108964746458
 30
0.0
 41
1.0
 10
107.6035250460882
 20
250.5429493428055
 30
0.0
 41
1.0
 10
107.6035250460882
 20
253.5110154654667
 30
0.0
 41
1.0
  0
SPLINE
  5
341
330
70
100
AcDbEntity
  8
Visible
100
AcDbSpline
210
0.0
220
0.0
230
1.0
 70
    12
 71
     3
 72
     8
 73
     4
 74
     0
 42
0.000000001
 43
0.0000000001
 40
0.0
 40
0.0
 40
0.0
 40
0.0
 40
1.0
 40
1.0
 40
1.0
 40
1.0
 10
97.56863113120198
 20
253.6523518191279
 30
0.0
 41
1.0
 10
97.56863113120198
 20
251.0729611744919
 30
0.0
 41
1.0
 10
99.44134068147651
 20
248.8115768201369
 30
0.0
 41
1.0
 10
102.0207326740001
 20
248.5289041128144
 30
0.0
 41
1.0
  0
LINE
  5
342
330
70
100
AcDbEntity
  8
Visible
100
AcDbLine
 10
97.568631
 20
255.419058
 30
0.0
 11
97.568631
 21
253.652352
 31
0.0
  0
SPLINE
  5
343
330
70
100
AcDbEntity
  8
Visible
100
AcDbSpline
210
0.0
220
0.0
230
1.0
 70
    12
 71
     3
 72
     8
 73
     4
 74
     0
 42
0.000000001
 43
0.0000000001
 40
0.0
 40
0.0
 40
0.0
 40
0.0
 40
1.0
 40
1.0
 40
1.0
 40
1.0
 10
97.42729679937475
 20
256.3024106405919
 30
0.0
 41
1.0
 10
97.53330024402567
 20
255.984403676368
 30
0.0
 41
1.0
 10
97.56863113120198
 20
255.6663963751725
 30
0.0
 41
1.0
 10
97.56863113120198
 20
255.4190575877801
 30
0.0
 41
1.0
  0
SPLINE
  5
344
330
70
100
AcDbEntity
  8
Visible
100
AcDbSpline
210
0.0
220
0.0
230
1.0
 70
    12
 71
     3
 72
     8
 73
     4
 74
     0
 42
0.000000001
 43
0.0000000001
 40
0.0
 40
0.0
 40
0.0
 40
0.0
 40
1.0
 40
1.0
 40
1.0
 40
1.0
 10
97.03861929951381
 20
257.0797612596725
 30
0.0
 41
1.0
 10
97.17995363134106
 20
256.8677563922083
 30
0.0
 41
1.0
 10
97.32129335472563
 20
256.5850836848877
 30
0.0
 41
1.0
 10
97.42729679937475
 20
256.3024106405919
 30
0.0
 41
1.0
  0
SPLINE
  5
345
330
70
100
AcDbEntity
  8
Visible
100
AcDbSpline
210
0.0
220
0.0
230
1.0
 70
    12
 71
     3
 72
     8
 73
     4
 74
     0
 42
0.000000001
 43
0.0000000001
 40
0.0
 40
0.0
 40
0.0
 40
0.0
 40
1.0
 40
1.0
 40
1.0
 40
1.0
 10
97.46262768655288
 20
257.8571120472389
 30
0.0
 41
1.0
 10
97.07395018669195
 20
257.8571120472389
 30
0.0
 41
1.0
 10
96.82661241021561
 20
257.3977685608697
 30
0.0
 41
1.0
 10
97.03861929951381
 20
257.0797612596725
 30
0.0
 41
1.0
  0
LINE
  5
346
330
70
100
AcDbEntity
  8
Visible
100
AcDbLine
 10
107.886199
 20
257.821778
 30
0.0
 11
97.462628
 21
257.857112
 31
0.0
  0
SPLINE
  5
347
330
70
100
AcDbEntity
  8
Visible
100
AcDbSpline
210
0.0
220
0.0
230
1.0
 70
    12
 71
     3
 72
     8
 73
     4
 74
     0
 42
0.000000001
 43
0.0000000001
 40
0.0
 40
0.0
 40
0.0
 40
0.0
 40
1.0
 40
1.0
 40
1.0
 40
1.0
 10
142.9729726542064
 20
249.9422689973144
 30
0.0
 41
1.0
 10
141.5949440484419
 20
249.9776032542158
 30
0.0
 41
1.0
 10
140.4289115488591
 20
251.1082947574487
 30
0.0
 41
1.0
 10
140.3935860532401
 20
252.5216596419487
 30
0.0
 41
1.0
  0
SPLINE
  5
348
330
70
100
AcDbEntity
  8
Visible
100
AcDbSpline
210
0.0
220
0.0
230
1.0
 70
    12
 71
     3
 72
     8
 73
     4
 74
     0
 42
0.000000001
 43
0.0000000001
 40
0.0
 40
0.0
 40
0.0
 40
0.0
 40
1.0
 40
1.0
 40
1.0
 40
1.0
 10
145.6230318126436
 20
252.5569938988501
 30
0.0
 41
1.0
 10
145.6230318126436
 20
251.1082947574487
 30
0.0
 41
1.0
 10
144.4216738174418
 20
249.9422689973144
 30
0.0
 41
1.0
 10
142.9729726542064
 20
249.9422689973144
 30
0.0
 41
1.0
  0
SPLINE
  5
349
330
70
100
AcDbEntity
  8
Visible
100
AcDbSpline
210
0.0
220
0.0
230
1.0
 70
    12
 71
     3
 72
     8
 73
     4
 74
     0
 42
0.000000001
 43
0.0000000001
 40
0.0
 40
0.0
 40
0.0
 40
0.0
 40
1.0
 40
1.0
 40
1.0
 40
1.0
 10
143.0083089329419
 20
255.1717188003877
 30
0.0
 41
1.0
 10
144.4570100961773
 20
255.1717188003877
 30
0.0
 41
1.0
 10
145.6230318126436
 20
254.0056930402516
 30
0.0
 41
1.0
 10
145.6230318126436
 20
252.5569938988501
 30
0.0
 41
1.0
  0
SPLINE
  5
34A
330
70
100
AcDbEntity
  8
Visible
100
AcDbSpline
210
0.0
220
0.0
230
1.0
 70
    12
 71
     3
 72
     8
 73
     4
 74
     0
 42
0.000000001
 43
0.0000000001
 40
0.0
 40
0.0
 40
0.0
 40
0.0
 40
1.0
 40
1.0
 40
1.0
 40
1.0
 10
140.3935860532401
 20
252.5216596419487
 30
0.0
 41
1.0
 10
140.3582497745046
 20
253.9703587833501
 30
0.0
 41
1.0
 10
141.5596077697064
 20
255.1717188003877
 30
0.0
 41
1.0
 10
143.0083089329419
 20
255.1717188003877
 30
0.0
 41
1.0
  0
SPLINE
  5
34B
330
70
100
AcDbEntity
  8
Visible
100
AcDbSpline
210
0.0
220
0.0
230
1.0
 70
    12
 71
     3
 72
     8
 73
     4
 74
     0
 42
0.000000001
 43
0.0000000001
 40
0.0
 40
0.0
 40
0.0
 40
0.0
 40
1.0
 40
1.0
 40
1.0
 40
1.0
 10
148.6617684709417
 20
256.2317431377069
 30
0.0
 41
1.0
 10
148.8737753602399
 20
256.5144161820008
 30
0.0
 41
1.0
 10
148.6617684709417
 20
256.8677574031262
 30
0.0
 41
1.0
 10
148.3437635285536
 20
256.8677574031262
 30
0.0
 41
1.0
  0
SPLINE
  5
34C
330
70
100
AcDbEntity
  8
Visible
100
AcDbSpline
210
0.0
220
0.0
230
1.0
 70
    12
 71
     3
 72
     8
 73
     4
 74
     0
 42
0.000000001
 43
0.0000000001
 40
0.0
 40
0.0
 40
0.0
 40
0.0
 40
1.0
 40
1.0
 40
1.0
 40
1.0
 10
148.0610840817826
 20
254.42970277518
 30
0.0
 41
1.0
 10
148.0610840817826
 20
254.6770415625724
 30
0.0
 41
1.0
 10
148.0964203605181
 20
255.4897264385545
 30
0.0
 41
1.0
 10
148.6617684709417
 20
256.2317431377069
 30
0.0
 41
1.0
  0
LINE
  5
34D
330
70
100
AcDbEntity
  8
Visible
100
AcDbLine
 10
148.061084
 20
252.556994
 30
0.0
 11
148.061084
 21
254.429703
 31
0.0
  0
SPLINE
  5
34E
330
70
100
AcDbEntity
  8
Visible
100
AcDbSpline
210
0.0
220
0.0
230
1.0
 70
    12
 71
     3
 72
     8
 73
     4
 74
     0
 42
0.000000001
 43
0.0000000001
 40
0.0
 40
0.0
 40
0.0
 40
0.0
 40
1.0
 40
1.0
 40
1.0
 40
1.0
 10
142.4782971012537
 20
247.5748825461997
 30
0.0
 41
1.0
 10
145.4816974808163
 20
247.256874908031
 30
0.0
 41
1.0
 10
148.0610840817826
 20
249.5889277761889
 30
0.0
 41
1.0
 10
148.0610840817826
 20
252.5569938988501
 30
0.0
 41
1.0
  0
SPLINE
  5
34F
330
70
100
AcDbEntity
  8
Visible
100
AcDbSpline
210
0.0
220
0.0
230
1.0
 70
    12
 71
     3
 72
     8
 73
     4
 74
     0
 42
0.000000001
 43
0.0000000001
 40
0.0
 40
0.0
 40
0.0
 40
0.0
 40
1.0
 40
1.0
 40
1.0
 40
1.0
 10
138.0261955584556
 20
252.6983302525114
 30
0.0
 41
1.0
 10
138.0261955584556
 20
250.1189396078771
 30
0.0
 41
1.0
 10
139.8988997171709
 20
247.8575552535222
 30
0.0
 41
1.0
 10
142.4782971012537
 20
247.5748825461997
 30
0.0
 41
1.0
  0
LINE
  5
350
330
70
100
AcDbEntity
  8
Visible
100
AcDbLine
 10
138.026196
 20
254.465036
 30
0.0
 11
138.026196
 21
252.69833
 31
0.0
  0
SPLINE
  5
351
330
70
100
AcDbEntity
  8
Visible
100
AcDbSpline
210
0.0
220
0.0
230
1.0
 70
    12
 71
     3
 72
     8
 73
     4
 74
     0
 42
0.000000001
 43
0.0000000001
 40
0.0
 40
0.0
 40
0.0
 40
0.0
 40
1.0
 40
1.0
 40
1.0
 40
1.0
 10
137.8848612266283
 20
255.3483894109486
 30
0.0
 41
1.0
 10
137.9908592797201
 20
255.0303824467264
 30
0.0
 41
1.0
 10
138.0261955584556
 20
254.7123751455292
 30
0.0
 41
1.0
 10
138.0261955584556
 20
254.4650363581368
 30
0.0
 41
1.0
  0
SPLINE
  5
352
330
70
100
AcDbEntity
  8
Visible
100
AcDbSpline
210
0.0
220
0.0
230
1.0
 70
    12
 71
     3
 72
     8
 73
     4
 74
     0
 42
0.000000001
 43
0.0000000001
 40
0.0
 40
0.0
 40
0.0
 40
0.0
 40
1.0
 40
1.0
 40
1.0
 40
1.0
 10
137.4961837267674
 20
256.1257400300292
 30
0.0
 41
1.0
 10
137.6375180585946
 20
255.913735162565
 30
0.0
 41
1.0
 10
137.77885239042
 20
255.6310624552443
 30
0.0
 41
1.0
 10
137.8848612266283
 20
255.3483894109486
 30
0.0
 41
1.0
  0
SPLINE
  5
353
330
70
100
AcDbEntity
  8
Visible
100
AcDbSpline
210
0.0
220
0.0
230
1.0
 70
    12
 71
     3
 72
     8
 73
     4
 74
     0
 42
0.000000001
 43
0.0000000001
 40
0.0
 40
0.0
 40
0.0
 40
0.0
 40
1.0
 40
1.0
 40
1.0
 40
1.0
 10
137.9201975053656
 20
256.9030906491098
 30
0.0
 41
1.0
 10
137.5315200055047
 20
256.9030906491098
 30
0.0
 41
1.0
 10
137.2841876205875
 20
256.4437469942532
 30
0.0
 41
1.0
 10
137.4961837267674
 20
256.1257400300292
 30
0.0
 41
1.0
  0
LINE
  5
354
330
70
100
AcDbEntity
  8
Visible
100
AcDbLine
 10
148.343764
 20
256.867757
 30
0.0
 11
137.920198
 21
256.903091
 31
0.0
  0
SPLINE
  5
355
330
70
100
AcDbEntity
  8
Visible
100
AcDbSpline
210
0.0
220
0.0
230
1.0
 70
    12
 71
     3
 72
     8
 73
     4
 74
     0
 42
0.000000001
 43
0.0000000001
 40
-1.0
 40
-1.0
 40
-1.0
 40
-1.0
 40
0.0
 40
0.0
 40
0.0
 40
0.0
 10
184.3492425876848
 20
147.5086551934691
 30
0.0
 41
1.0
 10
185.0559250299357
 20
146.2366246407964
 30
0.0
 41
1.0
 10
184.6319112513374
 20
144.6465891457337
 30
0.0
 41
1.0
 10
183.3952169774002
 20
143.9399067034828
 30
0.0
 41
1.0
  0
SPLINE
  5
356
330
70
100
AcDbEntity
  8
Visible
100
AcDbSpline
210
0.0
220
0.0
230
1.0
 70
    12
 71
     3
 72
     8
 73
     4
 74
     0
 42
0.000000001
 43
0.0000000001
 40
-1.0
 40
-1.0
 40
-1.0
 40
-1.0
 40
0.0
 40
0.0
 40
0.0
 40
0.0
 10
180.7804940976985
 20
148.4626808037537
 30
0.0
 41
1.0
 10
182.052524650373
 20
149.1693632460046
 30
0.0
 41
1.0
 10
183.6425601454357
 20
148.7453494674064
 30
0.0
 41
1.0
 10
184.3492425876848
 20
147.5086551934691
 30
0.0
 41
1.0
  0
SPLINE
  5
357
330
70
100
AcDbEntity
  8
Visible
100
AcDbSpline
210
0.0
220
0.0
230
1.0
 70
    12
 71
     3
 72
     8
 73
     4
 74
     0
 42
0.000000001
 43
0.0000000001
 40
-1.0
 40
-1.0
 40
-1.0
 40
-1.0
 40
0.0
 40
0.0
 40
0.0
 40
0.0
 10
179.8264684874139
 20
144.8939323137674
 30
0.0
 41
1.0
 10
179.1197860451648
 20
146.165962866442
 30
0.0
 41
1.0
 10
179.5437998237612
 20
147.7559983615047
 30
0.0
 41
1.0
 10
180.7804940976985
 20
148.4626808037537
 30
0.0
 41
1.0
  0
SPLINE
  5
358
330
70
100
AcDbEntity
  8
Visible
100
AcDbSpline
210
0.0
220
0.0
230
1.0
 70
    12
 71
     3
 72
     8
 73
     4
 74
     0
 42
0.000000001
 43
0.0000000001
 40
-1.0
 40
-1.0
 40
-1.0
 40
-1.0
 40
0.0
 40
0.0
 40
0.0
 40
0.0
 10
183.3952169774002
 20
143.9399067034828
 30
0.0
 41
1.0
 10
182.1231864247274
 20
143.2332242612337
 30
0.0
 41
1.0
 10
180.5331509296648
 20
143.6572272567118
 30
0.0
 41
1.0
 10
179.8264684874139
 20
144.8939323137674
 30
0.0
 41
1.0
  0
SPLINE
  5
359
330
70
100
AcDbEntity
  8
Visible
100
AcDbSpline
210
0.0
220
0.0
230
1.0
 70
    12
 71
     3
 72
     8
 73
     4
 74
     0
 42
0.000000001
 43
0.0000000001
 40
-1.0
 40
-1.0
 40
-1.0
 40
-1.0
 40
0.0
 40
0.0
 40
0.0
 40
0.0
 10
58.93012422101128
 20
105.3956418268171
 30
0.0
 41
1.0
 10
58.25863787695926
 20
105.3956418268171
 30
0.0
 41
1.0
 10
57.69342994707222
 20
105.9256536585053
 30
0.0
 41
1.0
 10
57.69342994707222
 20
106.6323361007562
 30
0.0
 41
1.0
  0
SPLINE
  5
35A
330
70
100
AcDbEntity
  8
Visible
100
AcDbSpline
210
0.0
220
0.0
230
1.0
 70
    12
 71
     3
 72
     8
 73
     4
 74
     0
 42
0.000000001
 43
0.0000000001
 40
-1.0
 40
-1.0
 40
-1.0
 40
-1.0
 40
0.0
 40
0.0
 40
0.0
 40
0.0
 10
60.16681849494853
 20
106.6323361007562
 30
0.0
 41
1.0
 10
60.16681849494853
 20
105.9608497567042
 30
0.0
 41
1.0
 10
59.60161056506149
 20
105.3956418268171
 30
0.0
 41
1.0
 10
58.93012422101128
 20
105.3956418268171
 30
0.0
 41
1.0
  0
SPLINE
  5
35B
330
70
100
AcDbEntity
  8
Visible
100
AcDbSpline
210
0.0
220
0.0
230
1.0
 70
    12
 71
     3
 72
     8
 73
     4
 74
     0
 42
0.000000001
 43
0.0000000001
 40
-1.0
 40
-1.0
 40
-1.0
 40
-1.0
 40
0.0
 40
0.0
 40
0.0
 40
0.0
 10
58.93012422101128
 20
107.8690303746934
 30
0.0
 41
1.0
 10
59.60161056506149
 20
107.8690303746934
 30
0.0
 41
1.0
 10
60.16681849494853
 20
107.3038224448082
 30
0.0
 41
1.0
 10
60.16681849494853
 20
106.6323361007562
 30
0.0
 41
1.0
  0
SPLINE
  5
35C
330
70
100
AcDbEntity
  8
Visible
100
AcDbSpline
210
0.0
220
0.0
230
1.0
 70
    12
 71
     3
 72
     8
 73
     4
 74
     0
 42
0.000000001
 43
0.0000000001
 40
-1.0
 40
-1.0
 40
-1.0
 40
-1.0
 40
0.0
 40
0.0
 40
0.0
 40
0.0
 10
57.69342994707222
 20
106.6323361007562
 30
0.0
 41
1.0
 10
57.69342994707222
 20
107.3034773850213
 30
0.0
 41
1.0
 10
58.25863787695926
 20
107.8690303746934
 30
0.0
 41
1.0
 10
58.93012422101128
 20
107.8690303746934
 30
0.0
 41
1.0
  0
SPLINE
  5
35D
330
70
100
AcDbEntity
  8
Visible
100
AcDbSpline
210
0.0
220
0.0
230
1.0
 70
    12
 71
     3
 72
     8
 73
     4
 74
     0
 42
0.000000001
 43
0.0000000001
 40
-1.0
 40
-1.0
 40
-1.0
 40
-1.0
 40
0.0
 40
0.0
 40
0.0
 40
0.0
 10
162.1057607895109
 20
124.4053305113866
 30
0.0
 41
1.0
 10
161.4342744454589
 20
124.4053305113866
 30
0.0
 41
1.0
 10
160.8690665155736
 20
124.935342343073
 30
0.0
 41
1.0
 10
160.8690665155736
 20
125.6420247853239
 30
0.0
 41
1.0
  0
SPLINE
  5
35E
330
70
100
AcDbEntity
  8
Visible
100
AcDbSpline
210
0.0
220
0.0
230
1.0
 70
    12
 71
     3
 72
     8
 73
     4
 74
     0
 42
0.000000001
 43
0.0000000001
 40
-1.0
 40
-1.0
 40
-1.0
 40
-1.0
 40
0.0
 40
0.0
 40
0.0
 40
0.0
 10
163.3424550634481
 20
125.6420247853239
 30
0.0
 41
1.0
 10
163.3424550634481
 20
124.9705384412718
 30
0.0
 41
1.0
 10
162.7772471335629
 20
124.4053305113866
 30
0.0
 41
1.0
 10
162.1057607895109
 20
124.4053305113866
 30
0.0
 41
1.0
  0
SPLINE
  5
35F
330
70
100
AcDbEntity
  8
Visible
100
AcDbSpline
210
0.0
220
0.0
230
1.0
 70
    12
 71
     3
 72
     8
 73
     4
 74
     0
 42
0.000000001
 43
0.0000000001
 40
-1.0
 40
-1.0
 40
-1.0
 40
-1.0
 40
0.0
 40
0.0
 40
0.0
 40
0.0
 10
162.1057607895109
 20
126.8787190592611
 30
0.0
 41
1.0
 10
162.7772471335629
 20
126.8787190592611
 30
0.0
 41
1.0
 10
163.3424550634481
 20
126.3135111293759
 30
0.0
 41
1.0
 10
163.3424550634481
 20
125.6420247853239
 30
0.0
 41
1.0
  0
SPLINE
  5
360
330
70
100
AcDbEntity
  8
Visible
100
AcDbSpline
210
0.0
220
0.0
230
1.0
 70
    12
 71
     3
 72
     8
 73
     4
 74
     0
 42
0.000000001
 43
0.0000000001
 40
-1.0
 40
-1.0
 40
-1.0
 40
-1.0
 40
0.0
 40
0.0
 40
0.0
 40
0.0
 10
160.8690665155736
 20
125.6420247853239
 30
0.0
 41
1.0
 10
160.8690665155736
 20
126.3487072275729
 30
0.0
 41
1.0
 10
161.4342744454589
 20
126.8787190592611
 30
0.0
 41
1.0
 10
162.1057607895109
 20
126.8787190592611
 30
0.0
 41
1.0
  0
SPLINE
  5
361
330
70
100
AcDbEntity
  8
Visible
100
AcDbSpline
210
0.0
220
0.0
230
1.0
 70
    12
 71
     3
 72
     8
 73
     4
 74
     0
 42
0.000000001
 43
0.0000000001
 40
-1.0
 40
-1.0
 40
-1.0
 40
-1.0
 40
0.0
 40
0.0
 40
0.0
 40
0.0
 10
58.93012422101128
 20
66.84590756620855
 30
0.0
 41
1.0
 10
58.25863787695926
 20
66.84590756620855
 30
0.0
 41
1.0
 10
57.69342994707222
 20
67.37591939789672
 30
0.0
 41
1.0
 10
57.69342994707222
 20
68.0826018401458
 30
0.0
 41
1.0
  0
SPLINE
  5
362
330
70
100
AcDbEntity
  8
Visible
100
AcDbSpline
210
0.0
220
0.0
230
1.0
 70
    12
 71
     3
 72
     8
 73
     4
 74
     0
 42
0.000000001
 43
0.0000000001
 40
-1.0
 40
-1.0
 40
-1.0
 40
-1.0
 40
0.0
 40
0.0
 40
0.0
 40
0.0
 10
60.16681849494853
 20
68.0826018401458
 30
0.0
 41
1.0
 10
60.16681849494853
 20
67.41111549609377
 30
0.0
 41
1.0
 10
59.60161056506149
 20
66.84590756620855
 30
0.0
 41
1.0
 10
58.93012422101128
 20
66.84590756620855
 30
0.0
 41
1.0
  0
SPLINE
  5
363
330
70
100
AcDbEntity
  8
Visible
100
AcDbSpline
210
0.0
220
0.0
230
1.0
 70
    12
 71
     3
 72
     8
 73
     4
 74
     0
 42
0.000000001
 43
0.0000000001
 40
-1.0
 40
-1.0
 40
-1.0
 40
-1.0
 40
0.0
 40
0.0
 40
0.0
 40
0.0
 10
58.93012422101128
 20
69.31929611408304
 30
0.0
 41
1.0
 10
59.60161056506149
 20
69.31929611408304
 30
0.0
 41
1.0
 10
60.16681849494853
 20
68.75408818419782
 30
0.0
 41
1.0
 10
60.16681849494853
 20
68.0826018401458
 30
0.0
 41
1.0
  0
SPLINE
  5
364
330
70
100
AcDbEntity
  8
Visible
100
AcDbSpline
210
0.0
220
0.0
230
1.0
 70
    12
 71
     3
 72
     8
 73
     4
 74
     0
 42
0.000000001
 43
0.0000000001
 40
-1.0
 40
-1.0
 40
-1.0
 40
-1.0
 40
0.0
 40
0.0
 40
0.0
 40
0.0
 10
57.69342994707222
 20
68.0826018401458
 30
0.0
 41
1.0
 10
57.69342994707222
 20
68.75408818419782
 30
0.0
 41
1.0
 10
58.25863787695926
 20
69.31929611408304
 30
0.0
 41
1.0
 10
58.93012422101128
 20
69.31929611408304
 30
0.0
 41
1.0
  0
SPLINE
  5
365
330
70
100
AcDbEntity
  8
Visible
100
AcDbSpline
210
0.0
220
0.0
230
1.0
 70
    12
 71
     3
 72
     8
 73
     4
 74
     0
 42
0.000000001
 43
0.0000000001
 40
-1.0
 40
-1.0
 40
-1.0
 40
-1.0
 40
0.0
 40
0.0
 40
0.0
 40
0.0
 10
135.0399612752499
 20
62.32320894776603
 30
0.0
 41
1.0
 10
134.3684749311978
 20
62.32320894776603
 30
0.0
 41
1.0
 10
133.8032670013126
 20
62.85322077945238
 30
0.0
 41
1.0
 10
133.8032670013126
 20
63.55990322170327
 30
0.0
 41
1.0
  0
SPLINE
  5
366
330
70
100
AcDbEntity
  8
Visible
100
AcDbSpline
210
0.0
220
0.0
230
1.0
 70
    12
 71
     3
 72
     8
 73
     4
 74
     0
 42
0.000000001
 43
0.0000000001
 40
-1.0
 40
-1.0
 40
-1.0
 40
-1.0
 40
0.0
 40
0.0
 40
0.0
 40
0.0
 10
136.2766555491871
 20
63.55990322170327
 30
0.0
 41
1.0
 10
136.2766555491871
 20
62.88841687765125
 30
0.0
 41
1.0
 10
135.7114476193019
 20
62.32320894776603
 30
0.0
 41
1.0
 10
135.0399612752499
 20
62.32320894776603
 30
0.0
 41
1.0
  0
SPLINE
  5
367
330
70
100
AcDbEntity
  8
Visible
100
AcDbSpline
210
0.0
220
0.0
230
1.0
 70
    12
 71
     3
 72
     8
 73
     4
 74
     0
 42
0.000000001
 43
0.0000000001
 40
-1.0
 40
-1.0
 40
-1.0
 40
-1.0
 40
0.0
 40
0.0
 40
0.0
 40
0.0
 10
135.0399612752499
 20
64.79659749564053
 30
0.0
 41
1.0
 10
135.7114476193019
 20
64.79659749564053
 30
0.0
 41
1.0
 10
136.2766555491871
 20
64.23138956575531
 30
0.0
 41
1.0
 10
136.2766555491871
 20
63.55990322170327
 30
0.0
 41
1.0
  0
SPLINE
  5
368
330
70
100
AcDbEntity
  8
Visible
100
AcDbSpline
210
0.0
220
0.0
230
1.0
 70
    12
 71
     3
 72
     8
 73
     4
 74
     0
 42
0.000000001
 43
0.0000000001
 40
-1.0
 40
-1.0
 40
-1.0
 40
-1.0
 40
0.0
 40
0.0
 40
0.0
 40
0.0
 10
133.8032670013126
 20
63.55990322170327
 30
0.0
 41
1.0
 10
133.8032670013126
 20
64.23138956575531
 30
0.0
 41
1.0
 10
134.3684749311978
 20
64.79659749564053
 30
0.0
 41
1.0
 10
135.0399612752499
 20
64.79659749564053
 30
0.0
 41
1.0
  0
SPLINE
  5
369
330
70
100
AcDbEntity
  8
Visible
100
AcDbSpline
210
0.0
220
0.0
230
1.0
 70
    12
 71
     3
 72
     8
 73
     4
 74
     0
 42
0.000000001
 43
0.0000000001
 40
-1.0
 40
-1.0
 40
-1.0
 40
-1.0
 40
0.0
 40
0.0
 40
0.0
 40
0.0
 10
135.0399612752499
 20
102.8867121209587
 30
0.0
 41
1.0
 10
134.3684749311978
 20
102.8867121209587
 30
0.0
 41
1.0
 10
133.8032670013126
 20
103.4167239526468
 30
0.0
 41
1.0
 10
133.8032670013126
 20
104.1234063948959
 30
0.0
 41
1.0
  0
SPLINE
  5
36A
330
70
100
AcDbEntity
  8
Visible
100
AcDbSpline
210
0.0
220
0.0
230
1.0
 70
    12
 71
     3
 72
     8
 73
     4
 74
     0
 42
0.000000001
 43
0.0000000001
 40
-1.0
 40
-1.0
 40
-1.0
 40
-1.0
 40
0.0
 40
0.0
 40
0.0
 40
0.0
 10
136.2766555491871
 20
104.1234063948959
 30
0.0
 41
1.0
 10
136.2766555491871
 20
103.4519200508439
 30
0.0
 41
1.0
 10
135.7114476193019
 20
102.8867121209587
 30
0.0
 41
1.0
 10
135.0399612752499
 20
102.8867121209587
 30
0.0
 41
1.0
  0
SPLINE
  5
36B
330
70
100
AcDbEntity
  8
Visible
100
AcDbSpline
210
0.0
220
0.0
230
1.0
 70
    12
 71
     3
 72
     8
 73
     4
 74
     0
 42
0.000000001
 43
0.0000000001
 40
-1.0
 40
-1.0
 40
-1.0
 40
-1.0
 40
0.0
 40
0.0
 40
0.0
 40
0.0
 10
135.0399612752499
 20
105.3601006688332
 30
0.0
 41
1.0
 10
135.7114476193019
 20
105.3601006688332
 30
0.0
 41
1.0
 10
136.2766555491871
 20
104.7948927389479
 30
0.0
 41
1.0
 10
136.2766555491871
 20
104.1234063948959
 30
0.0
 41
1.0
  0
SPLINE
  5
36C
330
70
100
AcDbEntity
  8
Visible
100
AcDbSpline
210
0.0
220
0.0
230
1.0
 70
    12
 71
     3
 72
     8
 73
     4
 74
     0
 42
0.000000001
 43
0.0000000001
 40
-1.0
 40
-1.0
 40
-1.0
 40
-1.0
 40
0.0
 40
0.0
 40
0.0
 40
0.0
 10
133.8032670013126
 20
104.1234063948959
 30
0.0
 41
1.0
 10
133.8032670013126
 20
104.8300888371468
 30
0.0
 41
1.0
 10
134.3684749311978
 20
105.3601006688332
 30
0.0
 41
1.0
 10
135.0399612752499
 20
105.3601006688332
 30
0.0
 41
1.0
  0
SPLINE
  5
36D
330
70
100
AcDbEntity
  8
Visible
100
AcDbSpline
210
0.0
220
0.0
230
1.0
 70
    12
 71
     3
 72
     8
 73
     4
 74
     0
 42
0.000000001
 43
0.0000000001
 40
-1.0
 40
-1.0
 40
-1.0
 40
-1.0
 40
0.0
 40
0.0
 40
0.0
 40
0.0
 10
144.2450139899974
 20
35.11081059698336
 30
0.0
 41
1.0
 10
142.796312826762
 20
35.04013803951057
 30
0.0
 41
1.0
 10
141.5949548315602
 20
36.13550876473892
 30
0.0
 41
1.0
 10
141.5242822740874
 20
37.58419914485785
 30
0.0
 41
1.0
  0
SPLINE
  5
36E
330
70
100
AcDbEntity
  8
Visible
100
AcDbSpline
210
0.0
220
0.0
230
1.0
 70
    12
 71
     3
 72
     8
 73
     4
 74
     0
 42
0.000000001
 43
0.0000000001
 40
-1.0
 40
-1.0
 40
-1.0
 40
-1.0
 40
0.0
 40
0.0
 40
0.0
 40
0.0
 10
146.7184025378719
 20
37.83154231289155
 30
0.0
 41
1.0
 10
146.7890750953447
 20
36.38283036653775
 30
0.0
 41
1.0
 10
145.6937151532329
 20
35.18148315445433
 30
0.0
 41
1.0
 10
144.2450139899974
 20
35.11081059698336
 30
0.0
 41
1.0
  0
SPLINE
  5
36F
330
70
100
AcDbEntity
  8
Visible
100
AcDbSpline
210
0.0
220
0.0
230
1.0
 70
    12
 71
     3
 72
     8
 73
     4
 74
     0
 42
0.000000001
 43
0.0000000001
 40
-1.0
 40
-1.0
 40
-1.0
 40
-1.0
 40
0.0
 40
0.0
 40
0.0
 40
0.0
 10
143.9976708219619
 20
40.30493086076785
 30
0.0
 41
1.0
 10
145.4463719851992
 20
40.37560341824064
 30
0.0
 41
1.0
 10
146.647729980401
 20
39.28023269301048
 30
0.0
 41
1.0
 10
146.7184025378719
 20
37.83154231289155
 30
0.0
 41
1.0
  0
SPLINE
  5
370
330
70
100
AcDbEntity
  8
Visible
100
AcDbSpline
210
0.0
220
0.0
230
1.0
 70
    12
 71
     3
 72
     8
 73
     4
 74
     0
 42
0.000000001
 43
0.0000000001
 40
-1.0
 40
-1.0
 40
-1.0
 40
-1.0
 40
0.0
 40
0.0
 40
0.0
 40
0.0
 10
141.5242822740874
 20
37.58419914485785
 30
0.0
 41
1.0
 10
141.4536097166146
 20
38.99756402935782
 30
0.0
 41
1.0
 10
142.584305937462
 20
40.23425830329506
 30
0.0
 41
1.0
 10
143.9976708219619
 20
40.30493086076785
 30
0.0
 41
1.0
  0
SPLINE
  5
371
330
70
100
AcDbEntity
  8
Visible
100
AcDbSpline
210
0.0
220
0.0
230
1.0
 70
    12
 71
     3
 72
     8
 73
     4
 74
     0
 42
0.000000001
 43
0.0000000001
 40
-1.0
 40
-1.0
 40
-1.0
 40
-1.0
 40
0.0
 40
0.0
 40
0.0
 40
0.0
 10
31.95316542476576
 20
60.62202950921892
 30
0.0
 41
1.0
 10
31.95316542476576
 20
62.07074145557271
 30
0.0
 41
1.0
 10
33.11919118490005
 20
63.23676317203899
 30
0.0
 41
1.0
 10
34.5678903263015
 20
63.23676317203899
 30
0.0
 41
1.0
  0
SPLINE
  5
372
330
70
100
AcDbEntity
  8
Visible
100
AcDbSpline
210
0.0
220
0.0
230
1.0
 70
    12
 71
     3
 72
     8
 73
     4
 74
     0
 42
0.000000001
 43
0.0000000001
 40
-1.0
 40
-1.0
 40
-1.0
 40
-1.0
 40
0.0
 40
0.0
 40
0.0
 40
0.0
 10
34.5678903263015
 20
58.00729584639885
 30
0.0
 41
1.0
 10
33.11919152187329
 20
58.00729584639885
 30
0.0
 41
1.0
 10
31.95316542476576
 20
59.17333912909999
 30
0.0
 41
1.0
 10
31.95316542476576
 20
60.62202950921892
 30
0.0
 41
1.0
  0
SPLINE
  5
373
330
70
100
AcDbEntity
  8
Visible
100
AcDbSpline
210
0.0
220
0.0
230
1.0
 70
    12
 71
     3
 72
     8
 73
     4
 74
     0
 42
0.000000001
 43
0.0000000001
 40
-1.0
 40
-1.0
 40
-1.0
 40
-1.0
 40
0.0
 40
0.0
 40
0.0
 40
0.0
 10
37.18261522783905
 20
60.62202950921892
 30
0.0
 41
1.0
 10
37.18261522783905
 20
59.1733175628633
 30
0.0
 41
1.0
 10
36.01658946770295
 20
58.00729584639885
 30
0.0
 41
1.0
 10
34.5678903263015
 20
58.00729584639885
 30
0.0
 41
1.0
  0
SPLINE
  5
374
330
70
100
AcDbEntity
  8
Visible
100
AcDbSpline
210
0.0
220
0.0
230
1.0
 70
    12
 71
     3
 72
     8
 73
     4
 74
     0
 42
0.000000001
 43
0.0000000001
 40
-1.0
 40
-1.0
 40
-1.0
 40
-1.0
 40
0.0
 40
0.0
 40
0.0
 40
0.0
 10
34.5678903263015
 20
63.23676317203899
 30
0.0
 41
1.0
 10
35.98125521080147
 20
63.23676317203899
 30
0.0
 41
1.0
 10
37.14728097093757
 20
62.07074145557271
 30
0.0
 41
1.0
 10
37.18261522783905
 20
60.62202950921892
 30
0.0
 41
1.0
  0
SPLINE
  5
375
330
70
100
AcDbEntity
  8
Visible
100
AcDbSpline
210
0.0
220
0.0
230
1.0
 70
    12
 71
     3
 72
     8
 73
     4
 74
     0
 42
0.000000001
 43
0.0000000001
 40
-1.0
 40
-1.0
 40
-1.0
 40
-1.0
 40
0.0
 40
0.0
 40
0.0
 40
0.0
 10
31.91783116786428
 20
116.0259502346089
 30
0.0
 41
1.0
 10
31.91783116786428
 20
117.4746513978443
 30
0.0
 41
1.0
 10
33.08385692799857
 20
118.6406731143088
 30
0.0
 41
1.0
 10
34.53255606940002
 20
118.6406731143088
 30
0.0
 41
1.0
  0
SPLINE
  5
376
330
70
100
AcDbEntity
  8
Visible
100
AcDbSpline
210
0.0
220
0.0
230
1.0
 70
    12
 71
     3
 72
     8
 73
     4
 74
     0
 42
0.000000001
 43
0.0000000001
 40
-1.0
 40
-1.0
 40
-1.0
 40
-1.0
 40
0.0
 40
0.0
 40
0.0
 40
0.0
 10
34.53255606940002
 20
113.4112273549071
 30
0.0
 41
1.0
 10
33.08385726497181
 20
113.4112273549071
 30
0.0
 41
1.0
 10
31.91783116786428
 20
114.5772490713716
 30
0.0
 41
1.0
 10
31.91783116786428
 20
116.0259502346089
 30
0.0
 41
1.0
  0
SPLINE
  5
377
330
70
100
AcDbEntity
  8
Visible
100
AcDbSpline
210
0.0
220
0.0
230
1.0
 70
    12
 71
     3
 72
     8
 73
     4
 74
     0
 42
0.000000001
 43
0.0000000001
 40
-1.0
 40
-1.0
 40
-1.0
 40
-1.0
 40
0.0
 40
0.0
 40
0.0
 40
0.0
 10
37.14728097093757
 20
116.0259502346089
 30
0.0
 41
1.0
 10
37.14728097093757
 20
114.5772490713716
 30
0.0
 41
1.0
 10
35.98125521080147
 20
113.4112273549071
 30
0.0
 41
1.0
 10
34.53255606940002
 20
113.4112273549071
 30
0.0
 41
1.0
  0
SPLINE
  5
378
330
70
100
AcDbEntity
  8
Visible
100
AcDbSpline
210
0.0
220
0.0
230
1.0
 70
    12
 71
     3
 72
     8
 73
     4
 74
     0
 42
0.000000001
 43
0.0000000001
 40
-1.0
 40
-1.0
 40
-1.0
 40
-1.0
 40
0.0
 40
0.0
 40
0.0
 40
0.0
 10
34.53255606940002
 20
118.6406731143088
 30
0.0
 41
1.0
 10
35.98125521080147
 20
118.6406731143088
 30
0.0
 41
1.0
 10
37.14728097093757
 20
117.474640614726
 30
0.0
 41
1.0
 10
37.14728097093757
 20
116.0259502346089
 30
0.0
 41
1.0
  0
SPLINE
  5
379
330
70
100
AcDbEntity
  8
Visible
100
AcDbSpline
210
0.0
220
0.0
230
1.0
 70
     8
 71
     2
 72
     6
 73
     3
 74
     0
 42
0.000000001
 43
0.0000000001
 40
-1.0
 40
-1.0
 40
-1.0
 40
0.0
 40
0.0
 40
0.0
 10
182.9358669200664
 20
133.056990622963
 30
0.0
 10
183.5012150304901
 20
133.9756799545102
 30
0.0
 10
182.8298580838582
 20
135.1417016709765
 30
0.0
  0
LINE
  5
37A
330
70
100
AcDbEntity
  8
Visible
100
AcDbLine
 10
177.141073
 20
122.31542
 30
0.0
 11
182.935867
 21
133.056991
 31
0.0
  0
SPLINE
  5
37B
330
70
100
AcDbEntity
  8
Visible
100
AcDbSpline
210
0.0
220
0.0
230
1.0
 70
    12
 71
     3
 72
     8
 73
     4
 74
     0
 42
0.000000001
 43
0.0000000001
 40
-1.0
 40
-1.0
 40
-1.0
 40
-1.0
 40
0.0
 40
0.0
 40
0.0
 40
0.0
 10
176.8584043865885
 20
121.0787253834478
 30
0.0
 41
1.0
 10
176.8584043865885
 20
121.502739162046
 30
0.0
 41
1.0
 10
176.9644024396784
 20
121.9620784362614
 30
0.0
 41
1.0
 10
177.1410730502412
 20
122.315419657385
 30
0.0
 41
1.0
  0
LINE
  5
37C
330
70
100
AcDbEntity
  8
Visible
100
AcDbLine
 10
176.858404
 20
103.977012
 30
0.0
 11
176.858404
 21
121.078725
 31
0.0
  0
SPLINE
  5
37D
330
70
100
AcDbEntity
  8
Visible
100
AcDbSpline
210
0.0
220
0.0
230
1.0
 70
    12
 71
     3
 72
     8
 73
     4
 74
     0
 42
0.000000001
 43
0.0000000001
 40
-1.0
 40
-1.0
 40
-1.0
 40
-1.0
 40
0.0
 40
0.0
 40
0.0
 40
0.0
 10
176.8230681078512
 20
45.07503734595593
 30
0.0
 41
1.0
 10
176.8584043865885
 20
64.57945549906617
 30
0.0
 41
1.0
 10
176.7877318291157
 20
85.67394149659412
 30
0.0
 41
1.0
 10
176.8584043865885
 20
103.9770124376227
 30
0.0
 41
1.0
  0
SPLINE
  5
37E
330
70
100
AcDbEntity
  8
Visible
100
AcDbSpline
210
0.0
220
0.0
230
1.0
 70
    12
 71
     3
 72
     8
 73
     4
 74
     0
 42
0.000000001
 43
0.0000000001
 40
-1.0
 40
-1.0
 40
-1.0
 40
-1.0
 40
0.0
 40
0.0
 40
0.0
 40
0.0
 10
176.7877318291157
 20
44.33302940808789
 30
0.0
 41
1.0
 10
176.8230681078512
 20
44.58035100988491
 30
0.0
 41
1.0
 10
176.8230681078512
 20
44.96903929286418
 30
0.0
 41
1.0
 10
176.8230681078512
 20
45.07503734595593
 30
0.0
 41
1.0
  0
SPLINE
  5
37F
330
70
100
AcDbEntity
  8
Visible
100
AcDbSpline
210
0.0
220
0.0
230
1.0
 70
    12
 71
     3
 72
     8
 73
     4
 74
     0
 42
0.000000001
 43
0.0000000001
 40
-1.0
 40
-1.0
 40
-1.0
 40
-1.0
 40
0.0
 40
0.0
 40
0.0
 40
0.0
 10
175.8690424975666
 20
43.90901562948966
 30
0.0
 41
1.0
 10
176.611061218553
 20
43.90901562948966
 30
0.0
 41
1.0
 10
176.7170592716429
 20
44.01501368257959
 30
0.0
 41
1.0
 10
176.7877318291157
 20
44.33302940808789
 30
0.0
 41
1.0
  0
SPLINE
  5
380
330
70
100
AcDbEntity
  8
Visible
100
AcDbSpline
210
0.0
220
0.0
230
1.0
 70
    12
 71
     3
 72
     8
 73
     4
 74
     0
 42
0.000000001
 43
0.0000000001
 40
-1.0
 40
-1.0
 40
-1.0
 40
-1.0
 40
0.0
 40
0.0
 40
0.0
 40
0.0
 10
151.8771757398026
 20
42.95499001920506
 30
0.0
 41
1.0
 10
165.9754883060668
 20
43.59099990398317
 30
0.0
 41
1.0
 10
167.318180633094
 20
43.55567440836421
 30
0.0
 41
1.0
 10
175.8690424975666
 20
43.90901562948966
 30
0.0
 41
1.0
  0
SPLINE
  5
381
330
70
100
AcDbEntity
  8
Visible
100
AcDbSpline
210
0.0
220
0.0
230
1.0
 70
    12
 71
     3
 72
     8
 73
     4
 74
     0
 42
0.000000001
 43
0.0000000001
 40
-1.0
 40
-1.0
 40
-1.0
 40
-1.0
 40
0.0
 40
0.0
 40
0.0
 40
0.0
 10
149.0151096920672
 20
39.81024452469865
 30
0.0
 41
1.0
 10
148.9091116389772
 20
41.47095257723231
 30
0.0
 41
1.0
 10
150.2164676872689
 20
42.88431746173228
 30
0.0
 41
1.0
 10
151.8771757398026
 20
42.95499001920506
 30
0.0
 41
1.0
  0
LINE
  5
382
330
70
100
AcDbEntity
  8
Visible
100
AcDbLine
 10
149.121108
 20
37.93754
 30
0.0
 11
149.01511
 21
39.810245
 31
0.0
  0
SPLINE
  5
383
330
70
100
AcDbEntity
  8
Visible
100
AcDbSpline
210
0.0
220
0.0
230
1.0
 70
    12
 71
     3
 72
     8
 73
     4
 74
     0
 42
0.000000001
 43
0.0000000001
 40
-1.0
 40
-1.0
 40
-1.0
 40
-1.0
 40
0.0
 40
0.0
 40
0.0
 40
0.0
 10
144.351001259969
 20
32.70809460657984
 30
0.0
 41
1.0
 10
147.107058471498
 20
32.84941815528873
 30
0.0
 41
1.0
 10
149.227105798247
 20
35.18148315445433
 30
0.0
 41
1.0
 10
149.1211077451571
 20
37.93754036598329
 30
0.0
 41
1.0
  0
SPLINE
  5
384
330
70
100
AcDbEntity
  8
Visible
100
AcDbSpline
210
0.0
220
0.0
230
1.0
 70
    12
 71
     3
 72
     8
 73
     4
 74
     0
 42
0.000000001
 43
0.0000000001
 40
-1.0
 40
-1.0
 40
-1.0
 40
-1.0
 40
0.0
 40
0.0
 40
0.0
 40
0.0
 10
139.1215555005674
 20
37.47820109176791
 30
0.0
 41
1.0
 10
139.2628898323928
 20
34.72214388023895
 30
0.0
 41
1.0
 10
141.5949440484419
 20
32.6020965534899
 30
0.0
 41
1.0
 10
144.351001259969
 20
32.70809460657984
 30
0.0
 41
1.0
  0
LINE
  5
385
330
70
100
AcDbEntity
  8
Visible
100
AcDbLine
 10
139.015557
 20
39.386252
 30
0.0
 11
139.121556
 21
37.478201
 31
0.0
  0
SPLINE
  5
386
330
70
100
AcDbEntity
  8
Visible
100
AcDbSpline
210
0.0
220
0.0
230
1.0
 70
    12
 71
     3
 72
     8
 73
     4
 74
     0
 42
0.000000001
 43
0.0000000001
 40
-1.0
 40
-1.0
 40
-1.0
 40
-1.0
 40
0.0
 40
0.0
 40
0.0
 40
0.0
 10
135.906159014823
 20
42.24830757695417
 30
0.0
 41
1.0
 10
137.5315200055047
 20
42.31898013442696
 30
0.0
 41
1.0
 10
138.9448848900047
 20
41.04696036487257
 30
0.0
 41
1.0
 10
139.0155574474756
 20
39.38625231233709
 30
0.0
 41
1.0
  0
LINE
  5
387
330
70
100
AcDbEntity
  8
Visible
100
AcDbLine
 10
134.35146
 20
42.248308
 30
0.0
 11
135.906159
 21
42.248308
 31
0.0
  0
LINE
  5
388
330
70
100
AcDbEntity
  8
Visible
100
AcDbLine
 10
116.048389
 20
41.541625
 30
0.0
 11
134.35146
 21
42.248308
 31
0.0
  0
LINE
  5
389
330
70
100
AcDbEntity
  8
Visible
100
AcDbLine
 10
94.070566
 20
41.541625
 30
0.0
 11
116.048389
 21
41.541625
 31
0.0
  0
LINE
  5
38A
330
70
100
AcDbEntity
  8
Visible
100
AcDbLine
 10
40.433354
 20
49.986467
 30
0.0
 11
94.070566
 21
41.541625
 31
0.0
  0
SPLINE
  5
38B
330
70
100
AcDbEntity
  8
Visible
100
AcDbSpline
210
0.0
220
0.0
230
1.0
 70
    12
 71
     3
 72
     8
 73
     4
 74
     0
 42
0.000000001
 43
0.0000000001
 40
-1.0
 40
-1.0
 40
-1.0
 40
-1.0
 40
0.0
 40
0.0
 40
0.0
 40
0.0
 10
39.47933249120615
 20
51.1171636006984
 30
0.0
 41
1.0
 10
39.47933249120615
 20
50.69314982210016
 30
0.0
 41
1.0
 10
39.44399890824934
 20
50.16313799041381
 30
0.0
 41
1.0
 10
40.4333540578209
 20
49.98646737985109
 30
0.0
 41
1.0
  0
LINE
  5
38C
330
70
100
AcDbEntity
  8
Visible
100
AcDbLine
 10
39.443999
 20
52.601201
 30
0.0
 11
39.479332
 21
51.117164
 31
0.0
  0
SPLINE
  5
38D
330
70
100
AcDbEntity
  8
Visible
100
AcDbSpline
210
0.0
220
0.0
230
1.0
 70
    12
 71
     3
 72
     8
 73
     4
 74
     0
 42
0.000000001
 43
0.0000000001
 40
-1.0
 40
-1.0
 40
-1.0
 40
-1.0
 40
0.0
 40
0.0
 40
0.0
 40
0.0
 10
36.44059852868668
 20
55.60460142223201
 30
0.0
 41
1.0
 10
38.10130253755233
 20
55.60460142223201
 30
0.0
 41
1.0
 10
39.44399890824934
 20
54.26190909520482
 30
0.0
 41
1.0
 10
39.44399890824934
 20
52.60120104266935
 30
0.0
 41
1.0
  0
LINE
  5
38E
330
70
100
AcDbEntity
  8
Visible
100
AcDbLine
 10
34.56789
 20
55.604601
 30
0.0
 11
36.440599
 21
55.604601
 31
0.0
  0
SPLINE
  5
38F
330
70
100
AcDbEntity
  8
Visible
100
AcDbSpline
210
0.0
220
0.0
230
1.0
 70
    12
 71
     3
 72
     8
 73
     4
 74
     0
 42
0.000000001
 43
0.0000000001
 40
-1.0
 40
-1.0
 40
-1.0
 40
-1.0
 40
0.0
 40
0.0
 40
0.0
 40
0.0
 10
29.55044505372098
 20
60.6220510754556
 30
0.0
 41
1.0
 10
29.55044505372098
 20
57.83064680207281
 30
0.0
 41
1.0
 10
31.81182873413309
 20
55.60460142223201
 30
0.0
 41
1.0
 10
34.5678903263015
 20
55.60460142223201
 30
0.0
 41
1.0
  0
SPLINE
  5
390
330
70
100
AcDbEntity
  8
Visible
100
AcDbSpline
210
0.0
220
0.0
230
1.0
 70
    12
 71
     3
 72
     8
 73
     4
 74
     0
 42
0.000000001
 43
0.0000000001
 40
-1.0
 40
-1.0
 40
-1.0
 40
-1.0
 40
0.0
 40
0.0
 40
0.0
 40
0.0
 10
34.5678903263015
 20
65.63950072867737
 30
0.0
 41
1.0
 10
31.77649481420303
 20
65.63950072867737
 30
0.0
 41
1.0
 10
29.55044505372098
 20
63.37810828698275
 30
0.0
 41
1.0
 10
29.55044505372098
 20
60.6220510754556
 30
0.0
 41
1.0
  0
LINE
  5
391
330
70
100
AcDbEntity
  8
Visible
100
AcDbLine
 10
36.475933
 20
65.639501
 30
0.0
 11
34.56789
 21
65.639501
 31
0.0
  0
SPLINE
  5
392
330
70
100
AcDbEntity
  8
Visible
100
AcDbSpline
210
0.0
220
0.0
230
1.0
 70
    12
 71
     3
 72
     8
 73
     4
 74
     0
 42
0.000000001
 43
0.0000000001
 40
-1.0
 40
-1.0
 40
-1.0
 40
-1.0
 40
0.0
 40
0.0
 40
0.0
 40
0.0
 10
39.44399890824934
 20
68.64290110824004
 30
0.0
 41
1.0
 10
39.44399890824934
 20
66.98219305570455
 30
0.0
 41
1.0
 10
38.13663612050914
 20
65.63950072867737
 30
0.0
 41
1.0
 10
36.47593278558816
 20
65.63950072867737
 30
0.0
 41
1.0
  0
LINE
  5
393
330
70
100
AcDbEntity
  8
Visible
100
AcDbLine
 10
39.443999
 20
107.475067
 30
0.0
 11
39.443999
 21
68.642901
 31
0.0
  0
LINE
  5
394
330
70
100
AcDbEntity
  8
Visible
100
AcDbLine
 10
39.408665
 20
108.075751
 30
0.0
 11
39.443999
 21
107.475067
 31
0.0
  0
SPLINE
  5
395
330
70
100
AcDbEntity
  8
Visible
100
AcDbSpline
210
0.0
220
0.0
230
1.0
 70
    12
 71
     3
 72
     8
 73
     4
 74
     0
 42
0.000000001
 43
0.0000000001
 40
-1.0
 40
-1.0
 40
-1.0
 40
-1.0
 40
0.0
 40
0.0
 40
0.0
 40
0.0
 10
36.40526494572987
 20
111.0791515726214
 30
0.0
 41
1.0
 10
38.06596895459552
 20
111.0791515726214
 30
0.0
 41
1.0
 10
39.40866532529253
 20
109.7364592455942
 30
0.0
 41
1.0
 10
39.40866532529253
 20
108.0757511930587
 30
0.0
 41
1.0
  0
LINE
  5
396
330
70
100
AcDbEntity
  8
Visible
100
AcDbLine
 10
34.532557
 20
111.079152
 30
0.0
 11
36.405265
 21
111.079152
 31
0.0
  0
SPLINE
  5
397
330
70
100
AcDbEntity
  8
Visible
100
AcDbSpline
210
0.0
220
0.0
230
1.0
 70
    12
 71
     3
 72
     8
 73
     4
 74
     0
 42
0.000000001
 43
0.0000000001
 40
-1.0
 40
-1.0
 40
-1.0
 40
-1.0
 40
0.0
 40
0.0
 40
0.0
 40
0.0
 10
29.51511147076417
 20
116.0966012258432
 30
0.0
 41
1.0
 10
29.51511147076417
 20
113.3051969524622
 30
0.0
 41
1.0
 10
31.77649515117628
 20
111.0791515726214
 30
0.0
 41
1.0
 10
34.53255674334469
 20
111.0791515726214
 30
0.0
 41
1.0
  0
SPLINE
  5
398
330
70
100
AcDbEntity
  8
Visible
100
AcDbSpline
210
0.0
220
0.0
230
1.0
 70
    12
 71
     3
 72
     8
 73
     4
 74
     0
 42
0.000000001
 43
0.0000000001
 40
-1.0
 40
-1.0
 40
-1.0
 40
-1.0
 40
0.0
 40
0.0
 40
0.0
 40
0.0
 10
34.53255674334469
 20
121.1140508790668
 30
0.0
 41
1.0
 10
31.74116123124623
 20
121.1140508790668
 30
0.0
 41
1.0
 10
29.51511147076417
 20
118.8526584373721
 30
0.0
 41
1.0
 10
29.51511147076417
 20
116.0966012258432
 30
0.0
 41
1.0
  0
LINE
  5
399
330
70
100
AcDbEntity
  8
Visible
100
AcDbLine
 10
36.440599
 20
121.114051
 30
0.0
 11
34.532557
 21
121.114051
 31
0.0
  0
SPLINE
  5
39A
330
70
100
AcDbEntity
  8
Visible
100
AcDbSpline
210
0.0
220
0.0
230
1.0
 70
    12
 71
     3
 72
     8
 73
     4
 74
     0
 42
0.000000001
 43
0.0000000001
 40
-1.0
 40
-1.0
 40
-1.0
 40
-1.0
 40
0.0
 40
0.0
 40
0.0
 40
0.0
 10
39.40866532529253
 20
124.1174512586294
 30
0.0
 41
1.0
 10
39.40866532529253
 20
122.4567432060939
 30
0.0
 41
1.0
 10
38.10130253755233
 20
121.1140508790668
 30
0.0
 41
1.0
 10
36.44059920263135
 20
121.1140508790668
 30
0.0
 41
1.0
  0
LINE
  5
39B
330
70
100
AcDbEntity
  8
Visible
100
AcDbLine
 10
39.408665
 20
126.237499
 30
0.0
 11
39.408665
 21
124.117451
 31
0.0
  0
LINE
  5
39C
330
70
100
AcDbEntity
  8
Visible
100
AcDbLine
 10
77.428182
 20
140.759825
 30
0.0
 11
39.408665
 21
126.237499
 31
0.0
  0
LINE
  5
39D
330
70
100
AcDbEntity
  8
Visible
100
AcDbLine
 10
126.860622
 20
140.759825
 30
0.0
 11
77.428182
 21
140.759825
 31
0.0
  0
LINE
  5
39E
330
70
100
AcDbEntity
  8
Visible
100
AcDbLine
 10
171.169609
 20
153.515445
 30
0.0
 11
126.860622
 21
140.759825
 31
0.0
  0
SPLINE
  5
39F
330
70
100
AcDbEntity
  8
Visible
100
AcDbSpline
210
0.0
220
0.0
230
1.0
 70
    12
 71
     3
 72
     8
 73
     4
 74
     0
 42
0.000000001
 43
0.0000000001
 40
-1.0
 40
-1.0
 40
-1.0
 40
-1.0
 40
0.0
 40
0.0
 40
0.0
 40
0.0
 10
172.4769754012613
 20
153.0561058952607
 30
0.0
 41
1.0
 10
171.9116272908377
 20
153.7981138331288
 30
0.0
 41
1.0
 10
171.346279180414
 20
153.5507814482116
 30
0.0
 41
1.0
 10
171.1696085698513
 20
153.5154451694761
 30
0.0
 41
1.0
  0
LINE
  5
3A0
330
70
100
AcDbEntity
  8
Visible
100
AcDbLine
 10
173.819668
 20
150.759388
 30
0.0
 11
172.476975
 21
153.056106
 31
0.0
  0
SPLINE
  5
3A1
330
70
100
AcDbEntity
  8
Visible
100
AcDbSpline
210
0.0
220
0.0
230
1.0
 70
    12
 71
     3
 72
     8
 73
     4
 74
     0
 42
0.000000001
 43
0.0000000001
 40
-1.0
 40
-1.0
 40
-1.0
 40
-1.0
 40
0.0
 40
0.0
 40
0.0
 40
0.0
 10
177.9537643286985
 20
149.6640280158372
 30
0.0
 41
1.0
 10
176.5050631654631
 20
148.8160112417608
 30
0.0
 41
1.0
 10
174.6323482236294
 20
149.3106867947117
 30
0.0
 41
1.0
 10
173.8196677282885
 20
150.759387957949
 30
0.0
 41
1.0
  0
LINE
  5
3A2
330
70
100
AcDbEntity
  8
Visible
100
AcDbLine
 10
179.579136
 20
150.618054
 30
0.0
 11
177.953764
 21
149.664028
 31
0.0
  0
SPLINE
  5
3A3
330
70
100
AcDbEntity
  8
Visible
100
AcDbSpline
210
0.0
220
0.0
230
1.0
 70
    12
 71
     3
 72
     8
 73
     4
 74
     0
 42
0.000000001
 43
0.0000000001
 40
-1.0
 40
-1.0
 40
-1.0
 40
-1.0
 40
0.0
 40
0.0
 40
0.0
 40
0.0
 10
186.4339536356983
 20
148.7806749630254
 30
0.0
 41
1.0
 10
185.0205887511983
 20
151.1834017365454
 30
0.0
 41
1.0
 10
181.9818520929002
 20
151.9960822318862
 30
0.0
 41
1.0
 10
179.5791361024985
 20
150.6180536261217
 30
0.0
 41
1.0
  0
SPLINE
  5
3A4
330
70
100
AcDbEntity
  8
Visible
100
AcDbSpline
210
0.0
220
0.0
230
1.0
 70
    12
 71
     3
 72
     8
 73
     4
 74
     0
 42
0.000000001
 43
0.0000000001
 40
-1.0
 40
-1.0
 40
-1.0
 40
-1.0
 40
0.0
 40
0.0
 40
0.0
 40
0.0
 10
184.5965749726019
 20
141.9258574298237
 30
0.0
 41
1.0
 10
186.999301746122
 20
143.3392223143237
 30
0.0
 41
1.0
 10
187.8119822414628
 20
146.3779589726218
 30
0.0
 41
1.0
 10
186.4339536356983
 20
148.7806749630254
 30
0.0
 41
1.0
  0
LINE
  5
3A5
330
70
100
AcDbEntity
  8
Visible
100
AcDbLine
 10
182.935867
 20
140.971832
 30
0.0
 11
184.596575
 21
141.925857
 31
0.0
  0
SPLINE
  5
3A6
330
70
100
AcDbEntity
  8
Visible
100
AcDbSpline
210
0.0
220
0.0
230
1.0
 70
    12
 71
     3
 72
     8
 73
     4
 74
     0
 42
0.000000001
 43
0.0000000001
 40
-1.0
 40
-1.0
 40
-1.0
 40
-1.0
 40
0.0
 40
0.0
 40
0.0
 40
0.0
 10
181.8405069779564
 20
136.8730714978646
 30
0.0
 41
1.0
 10
181.0278264826156
 20
138.3217726611019
 30
0.0
 41
1.0
 10
181.5225020355665
 20
140.1238150454628
 30
0.0
 41
1.0
 10
182.9358669200664
 20
140.9718318195391
 30
0.0
 41
1.0
  0
LINE
  5
3A7
330
70
100
AcDbEntity
  8
Visible
100
AcDbLine
 10
182.829858
 20
135.141702
 30
0.0
 11
181.840507
 21
136.873071
 31
0.0
  0
SPLINE
  5
3A8
330
70
100
AcDbEntity
  8
Visible
100
AcDbSpline
210
0.0
220
0.0
230
1.0
 70
    12
 71
     3
 72
     8
 73
     4
 74
     0
 42
0.000000001
 43
0.0000000001
 40
0.0
 40
0.0
 40
0.0
 40
0.0
 40
1.0
 40
1.0
 40
1.0
 40
1.0
 10
129.2280013090658
 20
250.931624146886
 30
0.0
 41
1.0
 10
127.8499727033031
 20
250.9669584037874
 30
0.0
 41
1.0
 10
126.6839402037185
 20
252.1329841639235
 30
0.0
 41
1.0
 10
126.6486147081014
 20
253.511014791522
 30
0.0
 41
1.0
  0
SPLINE
  5
3A9
330
70
100
AcDbEntity
  8
Visible
100
AcDbSpline
210
0.0
220
0.0
230
1.0
 70
    12
 71
     3
 72
     8
 73
     4
 74
     0
 42
0.000000001
 43
0.0000000001
 40
0.0
 40
0.0
 40
0.0
 40
0.0
 40
1.0
 40
1.0
 40
1.0
 40
1.0
 10
131.8780604675048
 20
253.5463490484235
 30
0.0
 41
1.0
 10
131.8780604675048
 20
252.0976499070221
 30
0.0
 41
1.0
 10
130.676702472303
 20
250.931624146886
 30
0.0
 41
1.0
 10
129.2280013090658
 20
250.931624146886
 30
0.0
 41
1.0
  0
SPLINE
  5
3AA
330
70
100
AcDbEntity
  8
Visible
100
AcDbSpline
210
0.0
220
0.0
230
1.0
 70
    12
 71
     3
 72
     8
 73
     4
 74
     0
 42
0.000000001
 43
0.0000000001
 40
0.0
 40
0.0
 40
0.0
 40
0.0
 40
1.0
 40
1.0
 40
1.0
 40
1.0
 10
129.2633375878031
 20
256.1610739499593
 30
0.0
 41
1.0
 10
130.7120387510385
 20
256.1257400300292
 30
0.0
 41
1.0
 10
131.8780604675048
 20
254.9597139329235
 30
0.0
 41
1.0
 10
131.8780604675048
 20
253.5463490484235
 30
0.0
 41
1.0
  0
SPLINE
  5
3AB
330
70
100
AcDbEntity
  8
Visible
100
AcDbSpline
210
0.0
220
0.0
230
1.0
 70
    12
 71
     3
 72
     8
 73
     4
 74
     0
 42
0.000000001
 43
0.0000000001
 40
0.0
 40
0.0
 40
0.0
 40
0.0
 40
1.0
 40
1.0
 40
1.0
 40
1.0
 10
126.6486147081014
 20
253.511014791522
 30
0.0
 41
1.0
 10
126.6132784293659
 20
254.9597139329235
 30
0.0
 41
1.0
 10
127.8146364245658
 20
256.1610739499593
 30
0.0
 41
1.0
 10
129.2633375878031
 20
256.1610739499593
 30
0.0
 41
1.0
  0
SPLINE
  5
3AC
330
70
100
AcDbEntity
  8
Visible
100
AcDbSpline
210
0.0
220
0.0
230
1.0
 70
    12
 71
     3
 72
     8
 73
     4
 74
     0
 42
0.000000001
 43
0.0000000001
 40
0.0
 40
0.0
 40
0.0
 40
0.0
 40
1.0
 40
1.0
 40
1.0
 40
1.0
 10
134.8814608470675
 20
257.185764030377
 30
0.0
 41
1.0
 10
135.0934677363657
 20
257.4684370746727
 30
0.0
 41
1.0
 10
134.8814608470675
 20
257.8217782957963
 30
0.0
 41
1.0
 10
134.5634559046775
 20
257.8217782957963
 30
0.0
 41
1.0
  0
SPLINE
  5
3AD
330
70
100
AcDbEntity
  8
Visible
100
AcDbSpline
210
0.0
220
0.0
230
1.0
 70
    12
 71
     3
 72
     8
 73
     4
 74
     0
 42
0.000000001
 43
0.0000000001
 40
0.0
 40
0.0
 40
0.0
 40
0.0
 40
1.0
 40
1.0
 40
1.0
 40
1.0
 10
134.2807764579065
 20
255.3837240048233
 30
0.0
 41
1.0
 10
134.2807764579065
 20
255.6310627922158
 30
0.0
 41
1.0
 10
134.3161127366438
 20
256.4437476681978
 30
0.0
 41
1.0
 10
134.8814608470675
 20
257.185764030377
 30
0.0
 41
1.0
  0
LINE
  5
3AE
330
70
100
AcDbEntity
  8
Visible
100
AcDbLine
 10
134.280776
 20
253.511015
 30
0.0
 11
134.280776
 21
255.383724
 31
0.0
  0
SPLINE
  5
3AF
330
70
100
AcDbEntity
  8
Visible
100
AcDbSpline
210
0.0
220
0.0
230
1.0
 70
    12
 71
     3
 72
     8
 73
     4
 74
     0
 42
0.000000001
 43
0.0000000001
 40
0.0
 40
0.0
 40
0.0
 40
0.0
 40
1.0
 40
1.0
 40
1.0
 40
1.0
 10
128.6979894773794
 20
248.5289041128144
 30
0.0
 41
1.0
 10
131.7367261356776
 20
248.2108964746458
 30
0.0
 41
1.0
 10
134.2807764579065
 20
250.5429493428055
 30
0.0
 41
1.0
 10
134.2807764579065
 20
253.5110154654667
 30
0.0
 41
1.0
  0
SPLINE
  5
3B0
330
70
100
AcDbEntity
  8
Visible
100
AcDbSpline
210
0.0
220
0.0
230
1.0
 70
    12
 71
     3
 72
     8
 73
     4
 74
     0
 42
0.000000001
 43
0.0000000001
 40
0.0
 40
0.0
 40
0.0
 40
0.0
 40
1.0
 40
1.0
 40
1.0
 40
1.0
 10
124.2458879345813
 20
253.6523518191279
 30
0.0
 41
1.0
 10
124.2458879345813
 20
251.0729611744919
 30
0.0
 41
1.0
 10
126.1185920932948
 20
248.8115768201369
 30
0.0
 41
1.0
 10
128.6979894773794
 20
248.5289041128144
 30
0.0
 41
1.0
  0
LINE
  5
3B1
330
70
100
AcDbEntity
  8
Visible
100
AcDbLine
 10
124.245888
 20
255.419058
 30
0.0
 11
124.245888
 21
253.652352
 31
0.0
  0
SPLINE
  5
3B2
330
70
100
AcDbEntity
  8
Visible
100
AcDbSpline
210
0.0
220
0.0
230
1.0
 70
    12
 71
     3
 72
     8
 73
     4
 74
     0
 42
0.000000001
 43
0.0000000001
 40
0.0
 40
0.0
 40
0.0
 40
0.0
 40
1.0
 40
1.0
 40
1.0
 40
1.0
 10
124.1045536027541
 20
256.3024106405919
 30
0.0
 41
1.0
 10
124.210551655844
 20
255.984403676368
 30
0.0
 41
1.0
 10
124.2458879345813
 20
255.6663963751725
 30
0.0
 41
1.0
 10
124.2458879345813
 20
255.4190575877801
 30
0.0
 41
1.0
  0
SPLINE
  5
3B3
330
70
100
AcDbEntity
  8
Visible
100
AcDbSpline
210
0.0
220
0.0
230
1.0
 70
    12
 71
     3
 72
     8
 73
     4
 74
     0
 42
0.000000001
 43
0.0000000001
 40
0.0
 40
0.0
 40
0.0
 40
0.0
 40
1.0
 40
1.0
 40
1.0
 40
1.0
 10
123.7158761028931
 20
257.0797612596725
 30
0.0
 41
1.0
 10
123.8572104347186
 20
256.8677563922083
 30
0.0
 41
1.0
 10
123.9985447665458
 20
256.5850836848877
 30
0.0
 41
1.0
 10
124.1045536027541
 20
256.3024106405919
 30
0.0
 41
1.0
  0
SPLINE
  5
3B4
330
70
100
AcDbEntity
  8
Visible
100
AcDbSpline
210
0.0
220
0.0
230
1.0
 70
    12
 71
     3
 72
     8
 73
     4
 74
     0
 42
0.000000001
 43
0.0000000001
 40
0.0
 40
0.0
 40
0.0
 40
0.0
 40
1.0
 40
1.0
 40
1.0
 40
1.0
 10
124.1398898814896
 20
257.8571120472389
 30
0.0
 41
1.0
 10
123.7512123816286
 20
257.8571120472389
 30
0.0
 41
1.0
 10
123.5038799967133
 20
257.3977685608697
 30
0.0
 41
1.0
 10
123.7158761028931
 20
257.0797612596725
 30
0.0
 41
1.0
  0
LINE
  5
3B5
330
70
100
AcDbEntity
  8
Visible
100
AcDbLine
 10
134.563456
 20
257.821778
 30
0.0
 11
124.13989
 21
257.857112
 31
0.0
  0
SPLINE
  5
3B6
330
70
100
AcDbEntity
  8
Visible
100
AcDbSpline
210
0.0
220
0.0
230
1.0
 70
    12
 71
     3
 72
     8
 73
     4
 74
     0
 42
0.000000001
 43
0.0000000001
 40
0.0
 40
0.0
 40
0.0
 40
0.0
 40
1.0
 40
1.0
 40
1.0
 40
1.0
 10
50.57424602579704
 20
250.2602752875937
 30
0.0
 41
1.0
 10
50.60957960875384
 20
251.6383059151922
 30
0.0
 41
1.0
 10
51.77560671677747
 20
252.8043323492711
 30
0.0
 41
1.0
 10
53.15363801832063
 20
252.8396659322279
 30
0.0
 41
1.0
  0
SPLINE
  5
3B7
330
70
100
AcDbEntity
  8
Visible
100
AcDbSpline
210
0.0
220
0.0
230
1.0
 70
    12
 71
     3
 72
     8
 73
     4
 74
     0
 42
0.000000001
 43
0.0000000001
 40
0.0
 40
0.0
 40
0.0
 40
0.0
 40
1.0
 40
1.0
 40
1.0
 40
1.0
 10
53.18897160127744
 20
247.6102161291565
 30
0.0
 41
1.0
 10
51.74027313382066
 20
247.6102161291565
 30
0.0
 41
1.0
 10
50.57424602579704
 20
248.8115768201369
 30
0.0
 41
1.0
 10
50.57424602579704
 20
250.2602752875937
 30
0.0
 41
1.0
  0
SPLINE
  5
3B8
330
70
100
AcDbEntity
  8
Visible
100
AcDbSpline
210
0.0
220
0.0
230
1.0
 70
    12
 71
     3
 72
     8
 73
     4
 74
     0
 42
0.000000001
 43
0.0000000001
 40
0.0
 40
0.0
 40
0.0
 40
0.0
 40
1.0
 40
1.0
 40
1.0
 40
1.0
 10
55.80369717675967
 20
250.2249410306922
 30
0.0
 41
1.0
 10
55.80369717675967
 20
248.7762432371801
 30
0.0
 41
1.0
 10
54.63767276451472
 20
247.6102161291565
 30
0.0
 41
1.0
 10
53.18897160127744
 20
247.6102161291565
 30
0.0
 41
1.0
  0
SPLINE
  5
3B9
330
70
100
AcDbEntity
  8
Visible
100
AcDbSpline
210
0.0
220
0.0
230
1.0
 70
    12
 71
     3
 72
     8
 73
     4
 74
     0
 42
0.000000001
 43
0.0000000001
 40
0.0
 40
0.0
 40
0.0
 40
0.0
 40
1.0
 40
1.0
 40
1.0
 40
1.0
 10
53.15363801832063
 20
252.8396659322279
 30
0.0
 41
1.0
 10
54.60233648577741
 20
252.8750001891294
 30
0.0
 41
1.0
 10
55.80369717675967
 20
251.6736401720937
 30
0.0
 41
1.0
 10
55.80369717675967
 20
250.2249410306922
 30
0.0
 41
1.0
  0
SPLINE
  5
3BA
330
70
100
AcDbEntity
  8
Visible
100
AcDbSpline
210
0.0
220
0.0
230
1.0
 70
    12
 71
     3
 72
     8
 73
     4
 74
     0
 42
0.000000001
 43
0.0000000001
 40
0.0
 40
0.0
 40
0.0
 40
0.0
 40
1.0
 40
1.0
 40
1.0
 40
1.0
 10
56.86372084013419
 20
244.6068157495938
 30
0.0
 41
1.0
 10
57.14639489534602
 20
244.3948115560743
 30
0.0
 41
1.0
 10
57.49973611647146
 20
244.6068157495938
 30
0.0
 41
1.0
 10
57.49973611647146
 20
244.9248233877625
 30
0.0
 41
1.0
  0
SPLINE
  5
3BB
330
70
100
AcDbEntity
  8
Visible
100
AcDbSpline
210
0.0
220
0.0
230
1.0
 70
    12
 71
     3
 72
     8
 73
     4
 74
     0
 42
0.000000001
 43
0.0000000001
 40
0.0
 40
0.0
 40
0.0
 40
0.0
 40
1.0
 40
1.0
 40
1.0
 40
1.0
 10
55.06168115155197
 20
245.2074960950831
 30
0.0
 41
1.0
 10
55.3090189280283
 20
245.2074960950831
 30
0.0
 41
1.0
 10
56.12170481492649
 20
245.1721625121281
 30
0.0
 41
1.0
 10
56.86372084013419
 20
244.6068157495938
 30
0.0
 41
1.0
  0
LINE
  5
3BC
330
70
100
AcDbEntity
  8
Visible
100
AcDbLine
 10
53.188974
 20
245.207496
 30
0.0
 11
55.061681
 21
245.207496
 31
0.0
  0
SPLINE
  5
3BD
330
70
100
AcDbEntity
  8
Visible
100
AcDbSpline
210
0.0
220
0.0
230
1.0
 70
    12
 71
     3
 72
     8
 73
     4
 74
     0
 42
0.000000001
 43
0.0000000001
 40
0.0
 40
0.0
 40
0.0
 40
0.0
 40
1.0
 40
1.0
 40
1.0
 40
1.0
 10
48.20686361835033
 20
250.7902871192801
 30
0.0
 41
1.0
 10
47.88885598018168
 20
247.7515531567624
 30
0.0
 41
1.0
 10
50.22090884834142
 20
245.2074960950831
 30
0.0
 41
1.0
 10
53.18897429705794
 20
245.2074960950831
 30
0.0
 41
1.0
  0
SPLINE
  5
3BE
330
70
100
AcDbEntity
  8
Visible
100
AcDbSpline
210
0.0
220
0.0
230
1.0
 70
    12
 71
     3
 72
     8
 73
     4
 74
     0
 42
0.000000001
 43
0.0000000001
 40
0.0
 40
0.0
 40
0.0
 40
0.0
 40
1.0
 40
1.0
 40
1.0
 40
1.0
 10
53.33031132466385
 20
255.2423869772174
 30
0.0
 41
1.0
 10
50.75091933213844
 20
255.2423869772174
 30
0.0
 41
1.0
 10
48.48953632567281
 20
253.3696784378608
 30
0.0
 41
1.0
 10
48.20686361835033
 20
250.7902871192801
 30
0.0
 41
1.0
  0
LINE
  5
3BF
330
70
100
AcDbEntity
  8
Visible
100
AcDbLine
 10
55.097017
 20
255.242387
 30
0.0
 11
53.330311
 21
255.242387
 31
0.0
  0
SPLINE
  5
3C0
330
70
100
AcDbEntity
  8
Visible
100
AcDbSpline
210
0.0
220
0.0
230
1.0
 70
    12
 71
     3
 72
     8
 73
     4
 74
     0
 42
0.000000001
 43
0.0000000001
 40
0.0
 40
0.0
 40
0.0
 40
0.0
 40
1.0
 40
1.0
 40
1.0
 40
1.0
 10
55.98037048310107
 20
255.3837233308787
 30
0.0
 41
1.0
 10
55.66236284493243
 20
255.2777208971456
 30
0.0
 41
1.0
 10
55.34435520676379
 20
255.2423869772174
 30
0.0
 41
1.0
 10
55.09701743028927
 20
255.2423869772174
 30
0.0
 41
1.0
  0
SPLINE
  5
3C1
330
70
100
AcDbEntity
  8
Visible
100
AcDbSpline
210
0.0
220
0.0
230
1.0
 70
    12
 71
     3
 72
     8
 73
     4
 74
     0
 42
0.000000001
 43
0.0000000001
 40
0.0
 40
0.0
 40
0.0
 40
0.0
 40
1.0
 40
1.0
 40
1.0
 40
1.0
 10
56.75772009126376
 20
255.7723988089056
 30
0.0
 41
1.0
 10
56.54571589774423
 20
255.6310624552443
 30
0.0
 41
1.0
 10
56.2630418425324
 20
255.4897257646098
 30
0.0
 41
1.0
 10
55.98037048310107
 20
255.3837233308787
 30
0.0
 41
1.0
  0
SPLINE
  5
3C2
330
70
100
AcDbEntity
  8
Visible
100
AcDbSpline
210
0.0
220
0.0
230
1.0
 70
    12
 71
     3
 72
     8
 73
     4
 74
     0
 42
0.000000001
 43
0.0000000001
 40
0.0
 40
0.0
 40
0.0
 40
0.0
 40
1.0
 40
1.0
 40
1.0
 40
1.0
 10
57.53506969942645
 20
255.3483894109486
 30
0.0
 41
1.0
 10
57.53506969942645
 20
255.7370648889755
 30
0.0
 41
1.0
 10
57.07572503365373
 20
255.984403676368
 30
0.0
 41
1.0
 10
56.75772009126376
 20
255.7723988089056
 30
0.0
 41
1.0
  0
LINE
  5
3C3
330
70
100
AcDbEntity
  8
Visible
100
AcDbLine
 10
57.499736
 20
244.924823
 30
0.0
 11
57.53507
 21
255.348389
 31
0.0
  0
SPLINE
  5
3C4
330
70
100
AcDbEntity
  8
Visible
100
AcDbSpline
210
0.0
220
0.0
230
1.0
 70
    12
 71
     3
 72
     8
 73
     4
 74
     0
 42
0.000000001
 43
0.0000000001
 40
0.0
 40
0.0
 40
0.0
 40
0.0
 40
1.0
 40
1.0
 40
1.0
 40
1.0
 10
49.86756358354615
 20
223.3710088991375
 30
0.0
 41
1.0
 10
49.90289716650295
 20
224.7490402006806
 30
0.0
 41
1.0
 10
51.0689242745284
 20
225.9150646129256
 30
0.0
 41
1.0
 10
52.44695557607156
 20
225.9504008916611
 30
0.0
 41
1.0
  0
SPLINE
  5
3C5
330
70
100
AcDbEntity
  8
Visible
100
AcDbSpline
210
0.0
220
0.0
230
1.0
 70
    12
 71
     3
 72
     8
 73
     4
 74
     0
 42
0.000000001
 43
0.0000000001
 40
0.0
 40
0.0
 40
0.0
 40
0.0
 40
1.0
 40
1.0
 40
1.0
 40
1.0
 10
52.48228915902837
 20
220.7209497406984
 30
0.0
 41
1.0
 10
51.03359069157159
 20
220.7209497406984
 30
0.0
 41
1.0
 10
49.86756358354615
 20
221.9223104316807
 30
0.0
 41
1.0
 10
49.86756358354615
 20
223.3710088991375
 30
0.0
 41
1.0
  0
SPLINE
  5
3C6
330
70
100
AcDbEntity
  8
Visible
100
AcDbSpline
210
0.0
220
0.0
230
1.0
 70
    12
 71
     3
 72
     8
 73
     4
 74
     0
 42
0.000000001
 43
0.0000000001
 40
0.0
 40
0.0
 40
0.0
 40
0.0
 40
1.0
 40
1.0
 40
1.0
 40
1.0
 10
55.09701473450878
 20
223.3356753161806
 30
0.0
 41
1.0
 10
55.06168115155197
 20
221.8869768487238
 30
0.0
 41
1.0
 10
53.89565404352834
 20
220.7209497406984
 30
0.0
 41
1.0
 10
52.48228915902837
 20
220.7209497406984
 30
0.0
 41
1.0
  0
SPLINE
  5
3C7
330
70
100
AcDbEntity
  8
Visible
100
AcDbSpline
210
0.0
220
0.0
230
1.0
 70
    12
 71
     3
 72
     8
 73
     4
 74
     0
 42
0.000000001
 43
0.0000000001
 40
0.0
 40
0.0
 40
0.0
 40
0.0
 40
1.0
 40
1.0
 40
1.0
 40
1.0
 10
52.44695557607156
 20
225.9504008916611
 30
0.0
 41
1.0
 10
53.89565404352834
 20
225.9857344746178
 30
0.0
 41
1.0
 10
55.09701473450878
 20
224.7843737836374
 30
0.0
 41
1.0
 10
55.09701473450878
 20
223.3356753161806
 30
0.0
 41
1.0
  0
SPLINE
  5
3C8
330
70
100
AcDbEntity
  8
Visible
100
AcDbSpline
210
0.0
220
0.0
230
1.0
 70
    12
 71
     3
 72
     8
 73
     4
 74
     0
 42
0.000000001
 43
0.0000000001
 40
0.0
 40
0.0
 40
0.0
 40
0.0
 40
1.0
 40
1.0
 40
1.0
 40
1.0
 10
56.12170751070698
 20
217.6822157781808
 30
0.0
 41
1.0
 10
56.40438156591881
 20
217.4702115846612
 30
0.0
 41
1.0
 10
56.75772278704426
 20
217.6822157781808
 30
0.0
 41
1.0
 10
56.75772278704426
 20
218.0002234163476
 30
0.0
 41
1.0
  0
SPLINE
  5
3C9
330
70
100
AcDbEntity
  8
Visible
100
AcDbSpline
210
0.0
220
0.0
230
1.0
 70
    12
 71
     3
 72
     8
 73
     4
 74
     0
 42
0.000000001
 43
0.0000000001
 40
0.0
 40
0.0
 40
0.0
 40
0.0
 40
1.0
 40
1.0
 40
1.0
 40
1.0
 10
54.31966782212476
 20
218.2828947757808
 30
0.0
 41
1.0
 10
54.56700559860109
 20
218.2828947757808
 30
0.0
 41
1.0
 10
55.34435790254429
 20
218.2475611928239
 30
0.0
 41
1.0
 10
56.12170751070698
 20
217.6822157781808
 30
0.0
 41
1.0
  0
LINE
  5
3CA
330
70
100
AcDbEntity
  8
Visible
100
AcDbLine
 10
52.446958
 20
218.282895
 30
0.0
 11
54.319668
 21
218.282895
 31
0.0
  0
SPLINE
  5
3CB
330
70
100
AcDbEntity
  8
Visible
100
AcDbSpline
210
0.0
220
0.0
230
1.0
 70
    12
 71
     3
 72
     8
 73
     4
 74
     0
 42
0.000000001
 43
0.0000000001
 40
0.0
 40
0.0
 40
0.0
 40
0.0
 40
1.0
 40
1.0
 40
1.0
 40
1.0
 10
47.46484759314443
 20
223.865687147867
 30
0.0
 41
1.0
 10
47.1468399549758
 20
220.8622867683043
 30
0.0
 41
1.0
 10
49.47889282313553
 20
218.2828947757808
 30
0.0
 41
1.0
 10
52.44695827185023
 20
218.2828947757808
 30
0.0
 41
1.0
  0
SPLINE
  5
3CC
330
70
100
AcDbEntity
  8
Visible
100
AcDbSpline
210
0.0
220
0.0
230
1.0
 70
    12
 71
     3
 72
     8
 73
     4
 74
     0
 42
0.000000001
 43
0.0000000001
 40
0.0
 40
0.0
 40
0.0
 40
0.0
 40
1.0
 40
1.0
 40
1.0
 40
1.0
 10
52.58829529945614
 20
228.3177859948864
 30
0.0
 41
1.0
 10
50.00890465482189
 20
228.3177859948864
 30
0.0
 41
1.0
 10
47.74752030046693
 20
226.4450764446119
 30
0.0
 41
1.0
 10
47.46484759314443
 20
223.865687147867
 30
0.0
 41
1.0
  0
LINE
  5
3CD
330
70
100
AcDbEntity
  8
Visible
100
AcDbLine
 10
54.355001
 20
228.317786
 30
0.0
 11
52.588295
 21
228.317786
 31
0.0
  0
SPLINE
  5
3CE
330
70
100
AcDbEntity
  8
Visible
100
AcDbSpline
210
0.0
220
0.0
230
1.0
 70
    12
 71
     3
 72
     8
 73
     4
 74
     0
 42
0.000000001
 43
0.0000000001
 40
0.0
 40
0.0
 40
0.0
 40
0.0
 40
1.0
 40
1.0
 40
1.0
 40
1.0
 10
55.23835445789519
 20
228.4591230224923
 30
0.0
 41
1.0
 10
54.92034681972654
 20
228.3531195778432
 30
0.0
 41
1.0
 10
54.60233918155791
 20
228.3177859948864
 30
0.0
 41
1.0
 10
54.35500140508157
 20
228.3177859948864
 30
0.0
 41
1.0
  0
SPLINE
  5
3CF
330
70
100
AcDbEntity
  8
Visible
100
AcDbSpline
210
0.0
220
0.0
230
1.0
 70
    12
 71
     3
 72
     8
 73
     4
 74
     0
 42
0.000000001
 43
0.0000000001
 40
0.0
 40
0.0
 40
0.0
 40
0.0
 40
1.0
 40
1.0
 40
1.0
 40
1.0
 10
56.01570406605787
 20
228.8477978265746
 30
0.0
 41
1.0
 10
55.80369987253835
 20
228.7064607989687
 30
0.0
 41
1.0
 10
55.52102581732651
 20
228.5651237713628
 30
0.0
 41
1.0
 10
55.23835445789519
 20
228.4591230224923
 30
0.0
 41
1.0
  0
SPLINE
  5
3D0
330
70
100
AcDbEntity
  8
Visible
100
AcDbSpline
210
0.0
220
0.0
230
1.0
 70
    12
 71
     3
 72
     8
 73
     4
 74
     0
 42
0.000000001
 43
0.0000000001
 40
0.0
 40
0.0
 40
0.0
 40
0.0
 40
1.0
 40
1.0
 40
1.0
 40
1.0
 10
56.79305367422057
 20
228.4237894395356
 30
0.0
 41
1.0
 10
56.79305367422057
 20
228.8124642436178
 30
0.0
 41
1.0
 10
56.33370900844602
 20
229.0598047158728
 30
0.0
 41
1.0
 10
56.01570406605787
 20
228.8477978265746
 30
0.0
 41
1.0
  0
LINE
  5
3D1
330
70
100
AcDbEntity
  8
Visible
100
AcDbLine
 10
56.757723
 20
218.000223
 30
0.0
 11
56.793054
 21
228.423789
 31
0.0
  0
SPLINE
  5
3D2
330
70
100
AcDbEntity
  8
Visible
100
AcDbSpline
210
0.0
220
0.0
230
1.0
 70
    12
 71
     3
 72
     8
 73
     4
 74
     0
 42
0.000000001
 43
0.0000000001
 40
0.0
 40
0.0
 40
0.0
 40
0.0
 40
1.0
 40
1.0
 40
1.0
 40
1.0
 10
50.57424602579704
 20
194.3263616009735
 30
0.0
 41
1.0
 10
50.60957960875384
 20
195.7043902067362
 30
0.0
 41
1.0
 10
51.74027313382066
 20
196.8704173147616
 30
0.0
 41
1.0
 10
53.15363801832063
 20
196.9057535934971
 30
0.0
 41
1.0
  0
SPLINE
  5
3D3
330
70
100
AcDbEntity
  8
Visible
100
AcDbSpline
210
0.0
220
0.0
230
1.0
 70
    12
 71
     3
 72
     8
 73
     4
 74
     0
 42
0.000000001
 43
0.0000000001
 40
0.0
 40
0.0
 40
0.0
 40
0.0
 40
1.0
 40
1.0
 40
1.0
 40
1.0
 10
53.18897160127744
 20
191.6763024425363
 30
0.0
 41
1.0
 10
51.74027313382066
 20
191.6763024425363
 30
0.0
 41
1.0
 10
50.57424602579704
 20
192.8776604377362
 30
0.0
 41
1.0
 10
50.57424602579704
 20
194.3263616009735
 30
0.0
 41
1.0
  0
SPLINE
  5
3D4
330
70
100
AcDbEntity
  8
Visible
100
AcDbSpline
210
0.0
220
0.0
230
1.0
 70
    12
 71
     3
 72
     8
 73
     4
 74
     0
 42
0.000000001
 43
0.0000000001
 40
0.0
 40
0.0
 40
0.0
 40
0.0
 40
1.0
 40
1.0
 40
1.0
 40
1.0
 10
55.80369717675967
 20
194.2910307137954
 30
0.0
 41
1.0
 10
55.76836359380286
 20
192.8423295505599
 30
0.0
 41
1.0
 10
54.60233648577741
 20
191.6763024425363
 30
0.0
 41
1.0
 10
53.18897160127744
 20
191.6763024425363
 30
0.0
 41
1.0
  0
SPLINE
  5
3D5
330
70
100
AcDbEntity
  8
Visible
100
AcDbSpline
210
0.0
220
0.0
230
1.0
 70
    12
 71
     3
 72
     8
 73
     4
 74
     0
 42
0.000000001
 43
0.0000000001
 40
0.0
 40
0.0
 40
0.0
 40
0.0
 40
1.0
 40
1.0
 40
1.0
 40
1.0
 10
53.15363801832063
 20
196.9057535934971
 30
0.0
 41
1.0
 10
54.60233648577741
 20
196.9410898722344
 30
0.0
 41
1.0
 10
55.80369717675967
 20
195.7397264854735
 30
0.0
 41
1.0
 10
55.80369717675967
 20
194.2910307137954
 30
0.0
 41
1.0
  0
SPLINE
  5
3D6
330
70
100
AcDbEntity
  8
Visible
100
AcDbSpline
210
0.0
220
0.0
230
1.0
 70
    12
 71
     3
 72
     8
 73
     4
 74
     0
 42
0.000000001
 43
0.0000000001
 40
0.0
 40
0.0
 40
0.0
 40
0.0
 40
1.0
 40
1.0
 40
1.0
 40
1.0
 10
56.86372084013419
 20
188.6728966714145
 30
0.0
 41
1.0
 10
57.14639489534602
 20
188.4608897821163
 30
0.0
 41
1.0
 10
57.49973611647146
 20
188.6728966714145
 30
0.0
 41
1.0
 10
57.49973611647146
 20
188.9909016138026
 30
0.0
 41
1.0
  0
SPLINE
  5
3D7
330
70
100
AcDbEntity
  8
Visible
100
AcDbSpline
210
0.0
220
0.0
230
1.0
 70
    12
 71
     3
 72
     8
 73
     4
 74
     0
 42
0.000000001
 43
0.0000000001
 40
0.0
 40
0.0
 40
0.0
 40
0.0
 40
1.0
 40
1.0
 40
1.0
 40
1.0
 10
55.06168115155197
 20
189.2735756690144
 30
0.0
 41
1.0
 10
55.3090189280283
 20
189.2735756690144
 30
0.0
 41
1.0
 10
56.12170481492649
 20
189.2382393902789
 30
0.0
 41
1.0
 10
56.86372084013419
 20
188.6728966714145
 30
0.0
 41
1.0
  0
LINE
  5
3D8
330
70
100
AcDbEntity
  8
Visible
100
AcDbLine
 10
53.188974
 20
189.273576
 30
0.0
 11
55.061681
 21
189.273576
 31
0.0
  0
SPLINE
  5
3D9
330
70
100
AcDbEntity
  8
Visible
100
AcDbSpline
210
0.0
220
0.0
230
1.0
 70
    12
 71
     3
 72
     8
 73
     4
 74
     0
 42
0.000000001
 43
0.0000000001
 40
0.0
 40
0.0
 40
0.0
 40
0.0
 40
1.0
 40
1.0
 40
1.0
 40
1.0
 10
48.20686361835033
 20
194.8563680411007
 30
0.0
 41
1.0
 10
47.88885598018168
 20
191.8529676615398
 30
0.0
 41
1.0
 10
50.22090884834142
 20
189.2735756690144
 30
0.0
 41
1.0
 10
53.18897429705794
 20
189.2735756690144
 30
0.0
 41
1.0
  0
SPLINE
  5
3DA
330
70
100
AcDbEntity
  8
Visible
100
AcDbSpline
210
0.0
220
0.0
230
1.0
 70
    12
 71
     3
 72
     8
 73
     4
 74
     0
 42
0.000000001
 43
0.0000000001
 40
0.0
 40
0.0
 40
0.0
 40
0.0
 40
1.0
 40
1.0
 40
1.0
 40
1.0
 10
53.33031132466385
 20
199.3084695839007
 30
0.0
 41
1.0
 10
50.75091933213844
 20
199.3084695839007
 30
0.0
 41
1.0
 10
48.48953632567281
 20
197.4357600336261
 30
0.0
 41
1.0
 10
48.20686361835033
 20
194.8563680411007
 30
0.0
 41
1.0
  0
LINE
  5
3DB
330
70
100
AcDbEntity
  8
Visible
100
AcDbLine
 10
55.097017
 20
199.30847
 30
0.0
 11
53.330311
 21
199.30847
 31
0.0
  0
SPLINE
  5
3DC
330
70
100
AcDbEntity
  8
Visible
100
AcDbSpline
210
0.0
220
0.0
230
1.0
 70
    12
 71
     3
 72
     8
 73
     4
 74
     0
 42
0.000000001
 43
0.0000000001
 40
0.0
 40
0.0
 40
0.0
 40
0.0
 40
1.0
 40
1.0
 40
1.0
 40
1.0
 10
55.98037048310107
 20
199.4498039157261
 30
0.0
 41
1.0
 10
55.66236284493243
 20
199.3438004710769
 30
0.0
 41
1.0
 10
55.34435520676379
 20
199.3084695839007
 30
0.0
 41
1.0
 10
55.09701743028927
 20
199.3084695839007
 30
0.0
 41
1.0
  0
SPLINE
  5
3DD
330
70
100
AcDbEntity
  8
Visible
100
AcDbSpline
210
0.0
220
0.0
230
1.0
 70
    12
 71
     3
 72
     8
 73
     4
 74
     0
 42
0.000000001
 43
0.0000000001
 40
0.0
 40
0.0
 40
0.0
 40
0.0
 40
1.0
 40
1.0
 40
1.0
 40
1.0
 10
56.75772009126376
 20
199.838481415587
 30
0.0
 41
1.0
 10
56.54571589774423
 20
199.6971470837616
 30
0.0
 41
1.0
 10
56.2630418425324
 20
199.5558073603752
 30
0.0
 41
1.0
 10
55.98037048310107
 20
199.4498039157261
 30
0.0
 41
1.0
  0
SPLINE
  5
3DE
330
70
100
AcDbEntity
  8
Visible
100
AcDbSpline
210
0.0
220
0.0
230
1.0
 70
    12
 71
     3
 72
     8
 73
     4
 74
     0
 42
0.000000001
 43
0.0000000001
 40
0.0
 40
0.0
 40
0.0
 40
0.0
 40
1.0
 40
1.0
 40
1.0
 40
1.0
 10
57.53506969942645
 20
199.4144730285498
 30
0.0
 41
1.0
 10
57.53506969942645
 20
199.8031505284107
 30
0.0
 41
1.0
 10
57.07572503365373
 20
200.050488304887
 30
0.0
 41
1.0
 10
56.75772009126376
 20
199.838481415587
 30
0.0
 41
1.0
  0
LINE
  5
3DF
330
70
100
AcDbEntity
  8
Visible
100
AcDbLine
 10
57.499736
 20
188.990902
 30
0.0
 11
57.53507
 21
199.414473
 31
0.0
  0
SPLINE
  5
3E0
330
70
100
AcDbEntity
  8
Visible
100
AcDbSpline
210
0.0
220
0.0
230
1.0
 70
    12
 71
     3
 72
     8
 73
     4
 74
     0
 42
0.000000001
 43
0.0000000001
 40
0.0
 40
0.0
 40
0.0
 40
0.0
 40
1.0
 40
1.0
 40
1.0
 40
1.0
 10
34.74456093686422
 20
208.636681056536
 30
0.0
 41
1.0
 10
34.7798951937657
 20
210.0147096623004
 30
0.0
 41
1.0
 10
35.91058669699851
 20
211.1807367703241
 30
0.0
 41
1.0
 10
37.32395158149848
 20
211.2160730490596
 30
0.0
 41
1.0
  0
SPLINE
  5
3E1
330
70
100
AcDbEntity
  8
Visible
100
AcDbSpline
210
0.0
220
0.0
230
1.0
 70
    12
 71
     3
 72
     8
 73
     4
 74
     0
 42
0.000000001
 43
0.0000000001
 40
0.0
 40
0.0
 40
0.0
 40
0.0
 40
1.0
 40
1.0
 40
1.0
 40
1.0
 10
37.35928583839996
 20
205.9866218980987
 30
0.0
 41
1.0
 10
35.91058669699851
 20
205.9866218980987
 30
0.0
 41
1.0
 10
34.74456093686422
 20
207.1879798933005
 30
0.0
 41
1.0
 10
34.74456093686422
 20
208.636681056536
 30
0.0
 41
1.0
  0
SPLINE
  5
3E2
330
70
100
AcDbEntity
  8
Visible
100
AcDbSpline
210
0.0
220
0.0
230
1.0
 70
    12
 71
     3
 72
     8
 73
     4
 74
     0
 42
0.000000001
 43
0.0000000001
 40
0.0
 40
0.0
 40
0.0
 40
0.0
 40
1.0
 40
1.0
 40
1.0
 40
1.0
 10
39.97401073993751
 20
208.6013501693596
 30
0.0
 41
1.0
 10
39.97401073993751
 20
207.1526543976816
 30
0.0
 41
1.0
 10
38.80798497980141
 20
205.9866218980987
 30
0.0
 41
1.0
 10
37.35928583839996
 20
205.9866218980987
 30
0.0
 41
1.0
  0
SPLINE
  5
3E3
330
70
100
AcDbEntity
  8
Visible
100
AcDbSpline
210
0.0
220
0.0
230
1.0
 70
    12
 71
     3
 72
     8
 73
     4
 74
     0
 42
0.000000001
 43
0.0000000001
 40
0.0
 40
0.0
 40
0.0
 40
0.0
 40
1.0
 40
1.0
 40
1.0
 40
1.0
 10
37.32395158149848
 20
211.2160730490596
 30
0.0
 41
1.0
 10
38.77265072289993
 20
211.2514093277968
 30
0.0
 41
1.0
 10
39.97401073993751
 20
210.0500459410359
 30
0.0
 41
1.0
 10
39.97401073993751
 20
208.6013501693596
 30
0.0
 41
1.0
  0
SPLINE
  5
3E4
330
70
100
AcDbEntity
  8
Visible
100
AcDbSpline
210
0.0
220
0.0
230
1.0
 70
    12
 71
     3
 72
     8
 73
     4
 74
     0
 42
0.000000001
 43
0.0000000001
 40
0.0
 40
0.0
 40
0.0
 40
0.0
 40
1.0
 40
1.0
 40
1.0
 40
1.0
 10
41.03403440331203
 20
202.9478852397988
 30
0.0
 41
1.0
 10
41.31670711063452
 20
202.7358783505006
 30
0.0
 41
1.0
 10
41.67004833175815
 20
202.9478852397988
 30
0.0
 41
1.0
 10
41.67004833175815
 20
203.2658901821887
 30
0.0
 41
1.0
  0
SPLINE
  5
3E5
330
70
100
AcDbEntity
  8
Visible
100
AcDbSpline
210
0.0
220
0.0
230
1.0
 70
    12
 71
     3
 72
     8
 73
     4
 74
     0
 42
0.000000001
 43
0.0000000001
 40
0.0
 40
0.0
 40
0.0
 40
0.0
 40
1.0
 40
1.0
 40
1.0
 40
1.0
 10
39.23199471472981
 20
203.5485642374005
 30
0.0
 41
1.0
 10
39.47933383909549
 20
203.5485642374005
 30
0.0
 41
1.0
 10
40.29201837810433
 20
203.5132279586633
 30
0.0
 41
1.0
 10
41.03403440331203
 20
202.9478852397988
 30
0.0
 41
1.0
  0
LINE
  5
3E6
330
70
100
AcDbEntity
  8
Visible
100
AcDbLine
 10
37.359286
 20
203.548564
 30
0.0
 11
39.231995
 21
203.548564
 31
0.0
  0
SPLINE
  5
3E7
330
70
100
AcDbEntity
  8
Visible
100
AcDbSpline
210
0.0
220
0.0
230
1.0
 70
    12
 71
     3
 72
     8
 73
     4
 74
     0
 42
0.000000001
 43
0.0000000001
 40
0.0
 40
0.0
 40
0.0
 40
0.0
 40
1.0
 40
1.0
 40
1.0
 40
1.0
 10
32.3771744857495
 20
209.1313566094868
 30
0.0
 41
1.0
 10
32.05916752152552
 20
206.0926199511887
 30
0.0
 41
1.0
 10
34.39121971573877
 20
203.5485642374005
 30
0.0
 41
1.0
 10
37.35928583839996
 20
203.5485642374005
 30
0.0
 41
1.0
  0
SPLINE
  5
3E8
330
70
100
AcDbEntity
  8
Visible
100
AcDbSpline
210
0.0
220
0.0
230
1.0
 70
    12
 71
     3
 72
     8
 73
     4
 74
     0
 42
0.000000001
 43
0.0000000001
 40
0.0
 40
0.0
 40
0.0
 40
0.0
 40
1.0
 40
1.0
 40
1.0
 40
1.0
 10
37.5006221920612
 20
213.5834581522868
 30
0.0
 41
1.0
 10
34.92123154742694
 20
213.5834581522868
 30
0.0
 41
1.0
 10
32.65984753004341
 20
211.7107486020123
 30
0.0
 41
1.0
 10
32.3771744857495
 20
209.1313566094868
 30
0.0
 41
1.0
  0
LINE
  5
3E9
330
70
100
AcDbEntity
  8
Visible
100
AcDbLine
 10
39.267328
 20
213.583458
 30
0.0
 11
37.500622
 21
213.583458
 31
0.0
  0
SPLINE
  5
3EA
330
70
100
AcDbEntity
  8
Visible
100
AcDbSpline
210
0.0
220
0.0
230
1.0
 70
    12
 71
     3
 72
     8
 73
     4
 74
     0
 42
0.000000001
 43
0.0000000001
 40
0.0
 40
0.0
 40
0.0
 40
0.0
 40
1.0
 40
1.0
 40
1.0
 40
1.0
 10
40.15068135049841
 20
213.7247924841122
 30
0.0
 41
1.0
 10
39.8326737123316
 20
213.6187890394631
 30
0.0
 41
1.0
 10
39.5146674220523
 20
213.5834581522868
 30
0.0
 41
1.0
 10
39.26732829768662
 20
213.5834581522868
 30
0.0
 41
1.0
  0
SPLINE
  5
3EB
330
70
100
AcDbEntity
  8
Visible
100
AcDbSpline
210
0.0
220
0.0
230
1.0
 70
    12
 71
     3
 72
     8
 73
     4
 74
     0
 42
0.000000001
 43
0.0000000001
 40
0.0
 40
0.0
 40
0.0
 40
0.0
 40
1.0
 40
1.0
 40
1.0
 40
1.0
 10
40.92803230655227
 20
214.1134699839731
 30
0.0
 41
1.0
 10
40.71602811303273
 20
213.9721356521477
 30
0.0
 41
1.0
 10
40.4333540578209
 20
213.8307959287613
 30
0.0
 41
1.0
 10
40.15068135049841
 20
213.7247924841122
 30
0.0
 41
1.0
  0
SPLINE
  5
3EC
330
70
100
AcDbEntity
  8
Visible
100
AcDbSpline
210
0.0
220
0.0
230
1.0
 70
    12
 71
     3
 72
     8
 73
     4
 74
     0
 42
0.000000001
 43
0.0000000001
 40
0.0
 40
0.0
 40
0.0
 40
0.0
 40
1.0
 40
1.0
 40
1.0
 40
1.0
 10
41.70538326260429
 20
213.6894615969359
 30
0.0
 41
1.0
 10
41.70538326260429
 20
214.0781390967968
 30
0.0
 41
1.0
 10
41.2460399447209
 20
214.3254768732713
 30
0.0
 41
1.0
 10
40.92803230655227
 20
214.1134699839731
 30
0.0
 41
1.0
  0
LINE
  5
3ED
330
70
100
AcDbEntity
  8
Visible
100
AcDbLine
 10
41.670048
 20
203.26589
 30
0.0
 11
41.705383
 21
213.689462
 31
0.0
  0
SPLINE
  5
3EE
330
70
100
AcDbEntity
  8
Visible
100
AcDbSpline
210
0.0
220
0.0
230
1.0
 70
    12
 71
     3
 72
     8
 73
     4
 74
     0
 42
0.000000001
 43
0.0000000001
 40
0.0
 40
0.0
 40
0.0
 40
0.0
 40
1.0
 40
1.0
 40
1.0
 40
1.0
 10
34.35588545883729
 20
234.8545985856999
 30
0.0
 41
1.0
 10
34.39121971573877
 20
236.2326298872431
 30
0.0
 41
1.0
 10
35.55724547587488
 20
237.398654299488
 30
0.0
 41
1.0
 10
36.93527677741804
 20
237.4339905782235
 30
0.0
 41
1.0
  0
SPLINE
  5
3EF
330
70
100
AcDbEntity
  8
Visible
100
AcDbSpline
210
0.0
220
0.0
230
1.0
 70
    12
 71
     3
 72
     8
 73
     4
 74
     0
 42
0.000000001
 43
0.0000000001
 40
0.0
 40
0.0
 40
0.0
 40
0.0
 40
1.0
 40
1.0
 40
1.0
 40
1.0
 10
36.97061036037485
 20
232.2045394272609
 30
0.0
 41
1.0
 10
35.5219112189734
 20
232.2045394272609
 30
0.0
 41
1.0
 10
34.35588545883729
 20
233.4059001182431
 30
0.0
 41
1.0
 10
34.35588545883729
 20
234.8545985856999
 30
0.0
 41
1.0
  0
SPLINE
  5
3F0
330
70
100
AcDbEntity
  8
Visible
100
AcDbSpline
210
0.0
220
0.0
230
1.0
 70
    12
 71
     3
 72
     8
 73
     4
 74
     0
 42
0.000000001
 43
0.0000000001
 40
0.0
 40
0.0
 40
0.0
 40
0.0
 40
1.0
 40
1.0
 40
1.0
 40
1.0
 10
39.58533593585526
 20
234.8192650027431
 30
0.0
 41
1.0
 10
39.55000100500911
 20
233.3705665352864
 30
0.0
 41
1.0
 10
38.4193095017763
 20
232.2045394272609
 30
0.0
 41
1.0
 10
36.97061036037485
 20
232.2045394272609
 30
0.0
 41
1.0
  0
SPLINE
  5
3F1
330
70
100
AcDbEntity
  8
Visible
100
AcDbSpline
210
0.0
220
0.0
230
1.0
 70
    12
 71
     3
 72
     8
 73
     4
 74
     0
 42
0.000000001
 43
0.0000000001
 40
0.0
 40
0.0
 40
0.0
 40
0.0
 40
1.0
 40
1.0
 40
1.0
 40
1.0
 10
36.93527677741804
 20
237.4339905782235
 30
0.0
 41
1.0
 10
38.38397591881949
 20
237.4693241611804
 30
0.0
 41
1.0
 10
39.58533593585526
 20
236.2679634701999
 30
0.0
 41
1.0
 10
39.58533593585526
 20
234.8192650027431
 30
0.0
 41
1.0
  0
SPLINE
  5
3F2
330
70
100
AcDbEntity
  8
Visible
100
AcDbSpline
210
0.0
220
0.0
230
1.0
 70
    12
 71
     3
 72
     8
 73
     4
 74
     0
 42
0.000000001
 43
0.0000000001
 40
0.0
 40
0.0
 40
0.0
 40
0.0
 40
1.0
 40
1.0
 40
1.0
 40
1.0
 10
40.64535825134043
 20
229.2011390477
 30
0.0
 41
1.0
 10
40.92803095866293
 20
228.9891348541805
 30
0.0
 41
1.0
 10
41.28137217978656
 20
229.2011390477
 30
0.0
 41
1.0
 10
41.28137217978656
 20
229.5191466858669
 30
0.0
 41
1.0
  0
SPLINE
  5
3F3
330
70
100
AcDbEntity
  8
Visible
100
AcDbSpline
210
0.0
220
0.0
230
1.0
 70
    12
 71
     3
 72
     8
 73
     4
 74
     0
 42
0.000000001
 43
0.0000000001
 40
0.0
 40
0.0
 40
0.0
 40
0.0
 40
1.0
 40
1.0
 40
1.0
 40
1.0
 10
38.84331856275821
 20
229.8018180453
 30
0.0
 41
1.0
 10
39.0906576871239
 20
229.8018180453
 30
0.0
 41
1.0
 10
39.86800864317775
 20
229.7664844623432
 30
0.0
 41
1.0
 10
40.64535825134043
 20
229.2011390477
 30
0.0
 41
1.0
  0
LINE
  5
3F4
330
70
100
AcDbEntity
  8
Visible
100
AcDbLine
 10
36.97061
 20
229.801818
 30
0.0
 11
38.843319
 21
229.801818
 31
0.0
  0
SPLINE
  5
3F5
330
70
100
AcDbEntity
  8
Visible
100
AcDbSpline
210
0.0
220
0.0
230
1.0
 70
    12
 71
     3
 72
     8
 73
     4
 74
     0
 42
0.000000001
 43
0.0000000001
 40
0.0
 40
0.0
 40
0.0
 40
0.0
 40
1.0
 40
1.0
 40
1.0
 40
1.0
 10
31.9884983337779
 20
235.3846104173863
 30
0.0
 41
1.0
 10
31.67049136955393
 20
232.3458764548668
 30
0.0
 41
1.0
 10
34.002543563769
 20
229.8018180453
 30
0.0
 41
1.0
 10
36.97060968643018
 20
229.8018180453
 30
0.0
 41
1.0
  0
SPLINE
  5
3F6
330
70
100
AcDbEntity
  8
Visible
100
AcDbSpline
210
0.0
220
0.0
230
1.0
 70
    12
 71
     3
 72
     8
 73
     4
 74
     0
 42
0.000000001
 43
0.0000000001
 40
0.0
 40
0.0
 40
0.0
 40
0.0
 40
1.0
 40
1.0
 40
1.0
 40
1.0
 10
37.11194604008961
 20
239.8367106122951
 30
0.0
 41
1.0
 10
34.53255539545535
 20
239.8367106122951
 30
0.0
 41
1.0
 10
32.27117137807181
 20
237.9640024099117
 30
0.0
 41
1.0
 10
31.9884983337779
 20
235.3846104173863
 30
0.0
 41
1.0
  0
LINE
  5
3F7
330
70
100
AcDbEntity
  8
Visible
100
AcDbLine
 10
38.878652
 20
239.836711
 30
0.0
 11
37.111946
 21
239.836711
 31
0.0
  0
SPLINE
  5
3F8
330
70
100
AcDbEntity
  8
Visible
100
AcDbSpline
210
0.0
220
0.0
230
1.0
 70
    12
 71
     3
 72
     8
 73
     4
 74
     0
 42
0.000000001
 43
0.0000000001
 40
0.0
 40
0.0
 40
0.0
 40
0.0
 40
1.0
 40
1.0
 40
1.0
 40
1.0
 10
39.76200519852864
 20
239.978047639901
 30
0.0
 41
1.0
 10
39.44399756036001
 20
239.8720455431412
 30
0.0
 41
1.0
 10
39.1259912700807
 20
239.8367106122951
 30
0.0
 41
1.0
 10
38.87865214571503
 20
239.8367106122951
 30
0.0
 41
1.0
  0
SPLINE
  5
3F9
330
70
100
AcDbEntity
  8
Visible
100
AcDbSpline
210
0.0
220
0.0
230
1.0
 70
    12
 71
     3
 72
     8
 73
     4
 74
     0
 42
0.000000001
 43
0.0000000001
 40
0.0
 40
0.0
 40
0.0
 40
0.0
 40
1.0
 40
1.0
 40
1.0
 40
1.0
 10
40.53935615458067
 20
240.3667224439832
 30
0.0
 41
1.0
 10
40.32735196106114
 20
240.2253854163773
 30
0.0
 41
1.0
 10
40.04467790584931
 20
240.0840497366607
 30
0.0
 41
1.0
 10
39.76200519852864
 20
239.978047639901
 30
0.0
 41
1.0
  0
SPLINE
  5
3FA
330
70
100
AcDbEntity
  8
Visible
100
AcDbSpline
210
0.0
220
0.0
230
1.0
 70
    12
 71
     3
 72
     8
 73
     4
 74
     0
 42
0.000000001
 43
0.0000000001
 40
0.0
 40
0.0
 40
0.0
 40
0.0
 40
1.0
 40
1.0
 40
1.0
 40
1.0
 10
41.31670711063452
 20
239.9427127090548
 30
0.0
 41
1.0
 10
41.31670711063452
 20
240.3313875131371
 30
0.0
 41
1.0
 10
40.85736379274931
 20
240.5787266375028
 30
0.0
 41
1.0
 10
40.53935615458067
 20
240.3667224439832
 30
0.0
 41
1.0
  0
LINE
  5
3FB
330
70
100
AcDbEntity
  8
Visible
100
AcDbLine
 10
41.281372
 20
229.519147
 30
0.0
 11
41.316707
 21
239.942713
 31
0.0
  0
SPLINE
  5
3FC
330
70
100
AcDbEntity
  8
Visible
100
AcDbSpline
210
0.0
220
0.0
230
1.0
 70
    12
 71
     3
 72
     8
 73
     4
 74
     0
 42
0.000000001
 43
0.0000000001
 40
0.0
 40
0.0
 40
0.0
 40
0.0
 40
1.0
 40
1.0
 40
1.0
 40
1.0
 10
89.05310554546487
 20
251.4969702354756
 30
0.0
 41
1.0
 10
87.6750769397022
 20
251.5323044923771
 30
0.0
 41
1.0
 10
86.50904983167675
 20
252.6983302525114
 30
0.0
 41
1.0
 10
86.47371355294126
 20
254.0763615540545
 30
0.0
 41
1.0
  0
SPLINE
  5
3FD
330
70
100
AcDbEntity
  8
Visible
100
AcDbSpline
210
0.0
220
0.0
230
1.0
 70
    12
 71
     3
 72
     8
 73
     4
 74
     0
 42
0.000000001
 43
0.0000000001
 40
0.0
 40
0.0
 40
0.0
 40
0.0
 40
1.0
 40
1.0
 40
1.0
 40
1.0
 10
91.70316470390389
 20
254.1116951370113
 30
0.0
 41
1.0
 10
91.70316470390389
 20
252.6629959956099
 30
0.0
 41
1.0
 10
90.50180670870213
 20
251.4969702354756
 30
0.0
 41
1.0
 10
89.05310554546487
 20
251.4969702354756
 30
0.0
 41
1.0
  0
SPLINE
  5
3FE
330
70
100
AcDbEntity
  8
Visible
100
AcDbSpline
210
0.0
220
0.0
230
1.0
 70
    12
 71
     3
 72
     8
 73
     4
 74
     0
 42
0.000000001
 43
0.0000000001
 40
0.0
 40
0.0
 40
0.0
 40
0.0
 40
1.0
 40
1.0
 40
1.0
 40
1.0
 10
89.08843643264299
 20
256.7264207124936
 30
0.0
 41
1.0
 10
90.53713759587845
 20
256.6910861186189
 30
0.0
 41
1.0
 10
91.70316470390389
 20
255.5250600215113
 30
0.0
 41
1.0
 10
91.70316470390389
 20
254.1116951370113
 30
0.0
 41
1.0
  0
SPLINE
  5
3FF
330
70
100
AcDbEntity
  8
Visible
100
AcDbSpline
210
0.0
220
0.0
230
1.0
 70
    12
 71
     3
 72
     8
 73
     4
 74
     0
 42
0.000000001
 43
0.0000000001
 40
0.0
 40
0.0
 40
0.0
 40
0.0
 40
1.0
 40
1.0
 40
1.0
 40
1.0
 10
86.47371355294126
 20
254.0763615540545
 30
0.0
 41
1.0
 10
86.43837727420578
 20
255.525060695456
 30
0.0
 41
1.0
 10
87.63974066096489
 20
256.7264207124936
 30
0.0
 41
1.0
 10
89.08843643264299
 20
256.7264207124936
 30
0.0
 41
1.0
  0
SPLINE
  5
400
330
70
100
AcDbEntity
  8
Visible
100
AcDbSpline
210
0.0
220
0.0
230
1.0
 70
    12
 71
     3
 72
     8
 73
     4
 74
     0
 42
0.000000001
 43
0.0000000001
 40
0.0
 40
0.0
 40
0.0
 40
0.0
 40
1.0
 40
1.0
 40
1.0
 40
1.0
 10
94.74190136220205
 20
257.7511096135077
 30
0.0
 41
1.0
 10
94.95390825150025
 20
258.0337826578016
 30
0.0
 41
1.0
 10
94.74190136220205
 20
258.3871237104413
 30
0.0
 41
1.0
 10
94.42389641981391
 20
258.3871237104413
 30
0.0
 41
1.0
  0
SPLINE
  5
401
330
70
100
AcDbEntity
  8
Visible
100
AcDbSpline
210
0.0
220
0.0
230
1.0
 70
    12
 71
     3
 72
     8
 73
     4
 74
     0
 42
0.000000001
 43
0.0000000001
 40
0.0
 40
0.0
 40
0.0
 40
0.0
 40
1.0
 40
1.0
 40
1.0
 40
1.0
 10
94.14122236460206
 20
255.9490694194665
 30
0.0
 41
1.0
 10
94.14122236460206
 20
256.1964082068607
 30
0.0
 41
1.0
 10
94.17655864333756
 20
257.0090930828428
 30
0.0
 41
1.0
 10
94.74190136220205
 20
257.7511096135077
 30
0.0
 41
1.0
  0
LINE
  5
402
330
70
100
AcDbEntity
  8
Visible
100
AcDbLine
 10
94.141222
 20
254.076361
 30
0.0
 11
94.141222
 21
255.949069
 31
0.0
  0
SPLINE
  5
403
330
70
100
AcDbEntity
  8
Visible
100
AcDbSpline
210
0.0
220
0.0
230
1.0
 70
    12
 71
     3
 72
     8
 73
     4
 74
     0
 42
0.000000001
 43
0.0000000001
 40
0.0
 40
0.0
 40
0.0
 40
0.0
 40
1.0
 40
1.0
 40
1.0
 40
1.0
 10
88.55842999251398
 20
249.0942495274594
 30
0.0
 41
1.0
 10
91.59716665081395
 20
248.7762418892907
 30
0.0
 41
1.0
 10
94.14122236460206
 20
251.1082947574487
 30
0.0
 41
1.0
 10
94.14122236460206
 20
254.0763608801098
 30
0.0
 41
1.0
  0
SPLINE
  5
404
330
70
100
AcDbEntity
  8
Visible
100
AcDbSpline
210
0.0
220
0.0
230
1.0
 70
    12
 71
     3
 72
     8
 73
     4
 74
     0
 42
0.000000001
 43
0.0000000001
 40
0.0
 40
0.0
 40
0.0
 40
0.0
 40
1.0
 40
1.0
 40
1.0
 40
1.0
 10
84.10632844971587
 20
254.2176972337711
 30
0.0
 41
1.0
 10
84.10632844971587
 20
251.6383065891369
 30
0.0
 41
1.0
 10
85.97903799999039
 20
249.37692223478
 30
0.0
 41
1.0
 10
88.55842999251398
 20
249.0942495274594
 30
0.0
 41
1.0
  0
LINE
  5
405
330
70
100
AcDbEntity
  8
Visible
100
AcDbLine
 10
84.106328
 20
255.984404
 30
0.0
 11
84.106328
 21
254.217697
 31
0.0
  0
SPLINE
  5
406
330
70
100
AcDbEntity
  8
Visible
100
AcDbSpline
210
0.0
220
0.0
230
1.0
 70
    12
 71
     3
 72
     8
 73
     4
 74
     0
 42
0.000000001
 43
0.0000000001
 40
0.0
 40
0.0
 40
0.0
 40
0.0
 40
1.0
 40
1.0
 40
1.0
 40
1.0
 10
83.96499411788864
 20
256.8677567291816
 30
0.0
 41
1.0
 10
84.07099756253956
 20
256.5497497649576
 30
0.0
 41
1.0
 10
84.10632844971587
 20
256.2317424637622
 30
0.0
 41
1.0
 10
84.10632844971587
 20
255.984403676368
 30
0.0
 41
1.0
  0
SPLINE
  5
407
330
70
100
AcDbEntity
  8
Visible
100
AcDbSpline
210
0.0
220
0.0
230
1.0
 70
    12
 71
     3
 72
     8
 73
     4
 74
     0
 42
0.000000001
 43
0.0000000001
 40
0.0
 40
0.0
 40
0.0
 40
0.0
 40
1.0
 40
1.0
 40
1.0
 40
1.0
 10
83.5763166180277
 20
257.6451073482622
 30
0.0
 41
1.0
 10
83.71765094985494
 20
257.433102480798
 30
0.0
 41
1.0
 10
83.85899067323952
 20
257.1504297734755
 30
0.0
 41
1.0
 10
83.96499411788864
 20
256.8677567291816
 30
0.0
 41
1.0
  0
SPLINE
  5
408
330
70
100
AcDbEntity
  8
Visible
100
AcDbSpline
210
0.0
220
0.0
230
1.0
 70
    12
 71
     3
 72
     8
 73
     4
 74
     0
 42
0.000000001
 43
0.0000000001
 40
0.0
 40
0.0
 40
0.0
 40
0.0
 40
1.0
 40
1.0
 40
1.0
 40
1.0
 10
84.00032500506677
 20
258.4224579673428
 30
0.0
 41
1.0
 10
83.61164750520584
 20
258.4224579673428
 30
0.0
 41
1.0
 10
83.3643097287295
 20
257.9631143124861
 30
0.0
 41
1.0
 10
83.5763166180277
 20
257.6451073482622
 30
0.0
 41
1.0
  0
LINE
  5
409
330
70
100
AcDbEntity
  8
Visible
100
AcDbLine
 10
94.423896
 20
258.387124
 30
0.0
 11
84.000325
 21
258.422458
 31
0.0
  0
SPLINE
  5
40A
330
70
100
AcDbEntity
  8
Visible
100
AcDbSpline
210
0.0
220
0.0
230
1.0
 70
    12
 71
     3
 72
     8
 73
     4
 74
     0
 42
0.000000001
 43
0.0000000001
 40
0.0
 40
0.0
 40
0.0
 40
0.0
 40
1.0
 40
1.0
 40
1.0
 40
1.0
 10
157.1419577779415
 20
249.6242620330904
 30
0.0
 41
1.0
 10
155.7639291721789
 20
249.6595962899919
 30
0.0
 41
1.0
 10
154.5978966725943
 20
250.7902877932265
 30
0.0
 41
1.0
 10
154.5625711769771
 20
252.2036533516712
 30
0.0
 41
1.0
  0
SPLINE
  5
40B
330
70
100
AcDbEntity
  8
Visible
100
AcDbSpline
210
0.0
220
0.0
230
1.0
 70
    12
 71
     3
 72
     8
 73
     4
 74
     0
 42
0.000000001
 43
0.0000000001
 40
0.0
 40
0.0
 40
0.0
 40
0.0
 40
1.0
 40
1.0
 40
1.0
 40
1.0
 10
159.7920169363788
 20
252.238986934628
 30
0.0
 41
1.0
 10
159.7920169363788
 20
250.7902877932265
 30
0.0
 41
1.0
 10
158.5906589411788
 20
249.6242620330904
 30
0.0
 41
1.0
 10
157.1419577779415
 20
249.6242620330904
 30
0.0
 41
1.0
  0
SPLINE
  5
40C
330
70
100
AcDbEntity
  8
Visible
100
AcDbSpline
210
0.0
220
0.0
230
1.0
 70
    12
 71
     3
 72
     8
 73
     4
 74
     0
 42
0.000000001
 43
0.0000000001
 40
0.0
 40
0.0
 40
0.0
 40
0.0
 40
1.0
 40
1.0
 40
1.0
 40
1.0
 10
157.1772940566789
 20
254.8537125101084
 30
0.0
 41
1.0
 10
158.6259952199143
 20
254.8537125101084
 30
0.0
 41
1.0
 10
159.7920169363788
 20
253.6876854020848
 30
0.0
 41
1.0
 10
159.7920169363788
 20
252.238986934628
 30
0.0
 41
1.0
  0
SPLINE
  5
40D
330
70
100
AcDbEntity
  8
Visible
100
AcDbSpline
210
0.0
220
0.0
230
1.0
 70
    12
 71
     3
 72
     8
 73
     4
 74
     0
 42
0.000000001
 43
0.0000000001
 40
0.0
 40
0.0
 40
0.0
 40
0.0
 40
1.0
 40
1.0
 40
1.0
 40
1.0
 10
154.5625711769771
 20
252.2036533516712
 30
0.0
 41
1.0
 10
154.5272348982398
 20
253.6523524930726
 30
0.0
 41
1.0
 10
155.7285928934416
 20
254.8537125101084
 30
0.0
 41
1.0
 10
157.1772940566789
 20
254.8537125101084
 30
0.0
 41
1.0
  0
SPLINE
  5
40E
330
70
100
AcDbEntity
  8
Visible
100
AcDbSpline
210
0.0
220
0.0
230
1.0
 70
    12
 71
     3
 72
     8
 73
     4
 74
     0
 42
0.000000001
 43
0.0000000001
 40
0.0
 40
0.0
 40
0.0
 40
0.0
 40
1.0
 40
1.0
 40
1.0
 40
1.0
 10
162.8307535946787
 20
255.9137354995382
 30
0.0
 41
1.0
 10
163.0427604839769
 20
256.1964085438321
 30
0.0
 41
1.0
 10
162.8307535946787
 20
256.5497497649576
 30
0.0
 41
1.0
 10
162.5127486522888
 20
256.5497497649576
 30
0.0
 41
1.0
  0
SPLINE
  5
40F
330
70
100
AcDbEntity
  8
Visible
100
AcDbSpline
210
0.0
220
0.0
230
1.0
 70
    12
 71
     3
 72
     8
 73
     4
 74
     0
 42
0.000000001
 43
0.0000000001
 40
0.0
 40
0.0
 40
0.0
 40
0.0
 40
1.0
 40
1.0
 40
1.0
 40
1.0
 10
162.2300692055178
 20
254.1116951370113
 30
0.0
 41
1.0
 10
162.2300692055178
 20
254.359034261377
 30
0.0
 41
1.0
 10
162.2654054842551
 20
255.1717188003877
 30
0.0
 41
1.0
 10
162.8307535946787
 20
255.9137354995382
 30
0.0
 41
1.0
  0
LINE
  5
410
330
70
100
AcDbEntity
  8
Visible
100
AcDbLine
 10
162.230069
 20
252.238986
 30
0.0
 11
162.230069
 21
254.111695
 31
0.0
  0
SPLINE
  5
411
330
70
100
AcDbEntity
  8
Visible
100
AcDbSpline
210
0.0
220
0.0
230
1.0
 70
    12
 71
     3
 72
     8
 73
     4
 74
     0
 42
0.000000001
 43
0.0000000001
 40
0.0
 40
0.0
 40
0.0
 40
0.0
 40
1.0
 40
1.0
 40
1.0
 40
1.0
 10
156.6472822249907
 20
247.256874908031
 30
0.0
 41
1.0
 10
159.6860188832888
 20
246.9388672698624
 30
0.0
 41
1.0
 10
162.2300692055178
 20
249.2709201380221
 30
0.0
 41
1.0
 10
162.2300692055178
 20
252.2389862606815
 30
0.0
 41
1.0
  0
SPLINE
  5
412
330
70
100
AcDbEntity
  8
Visible
100
AcDbSpline
210
0.0
220
0.0
230
1.0
 70
    12
 71
     3
 72
     8
 73
     4
 74
     0
 42
0.000000001
 43
0.0000000001
 40
0.0
 40
0.0
 40
0.0
 40
0.0
 40
1.0
 40
1.0
 40
1.0
 40
1.0
 10
152.1951806821926
 20
252.3803232882892
 30
0.0
 41
1.0
 10
152.1951806821926
 20
249.8009319697085
 30
0.0
 41
1.0
 10
154.0678848409061
 20
247.5395489632429
 30
0.0
 41
1.0
 10
156.6472822249907
 20
247.256874908031
 30
0.0
 41
1.0
  0
LINE
  5
413
330
70
100
AcDbEntity
  8
Visible
100
AcDbLine
 10
152.195181
 20
254.147029
 30
0.0
 11
152.195181
 21
252.380323
 31
0.0
  0
SPLINE
  5
414
330
70
100
AcDbEntity
  8
Visible
100
AcDbSpline
210
0.0
220
0.0
230
1.0
 70
    12
 71
     3
 72
     8
 73
     4
 74
     0
 42
0.000000001
 43
0.0000000001
 40
0.0
 40
0.0
 40
0.0
 40
0.0
 40
1.0
 40
1.0
 40
1.0
 40
1.0
 10
152.0538463503653
 20
255.0303824467264
 30
0.0
 41
1.0
 10
152.1598444034553
 20
254.7123754825025
 30
0.0
 41
1.0
 10
152.1951806821926
 20
254.3943685182785
 30
0.0
 41
1.0
 10
152.1951806821926
 20
254.1470293939128
 30
0.0
 41
1.0
  0
SPLINE
  5
415
330
70
100
AcDbEntity
  8
Visible
100
AcDbSpline
210
0.0
220
0.0
230
1.0
 70
    12
 71
     3
 72
     8
 73
     4
 74
     0
 42
0.000000001
 43
0.0000000001
 40
0.0
 40
0.0
 40
0.0
 40
0.0
 40
1.0
 40
1.0
 40
1.0
 40
1.0
 10
151.6651688505044
 20
255.8077330658071
 30
0.0
 41
1.0
 10
151.8065031823298
 20
255.5957281983428
 30
0.0
 41
1.0
 10
151.9478375141571
 20
255.3130554910203
 30
0.0
 41
1.0
 10
152.0538463503653
 20
255.0303824467264
 30
0.0
 41
1.0
  0
SPLINE
  5
416
330
70
100
AcDbEntity
  8
Visible
100
AcDbSpline
210
0.0
220
0.0
230
1.0
 70
    12
 71
     3
 72
     8
 73
     4
 74
     0
 42
0.000000001
 43
0.0000000001
 40
0.0
 40
0.0
 40
0.0
 40
0.0
 40
1.0
 40
1.0
 40
1.0
 40
1.0
 10
152.0891826291008
 20
256.5850836848877
 30
0.0
 41
1.0
 10
151.7005051292399
 20
256.5850836848877
 30
0.0
 41
1.0
 10
151.4531727443245
 20
256.1257400300292
 30
0.0
 41
1.0
 10
151.6651688505044
 20
255.8077330658071
 30
0.0
 41
1.0
  0
LINE
  5
417
330
70
100
AcDbEntity
  8
Visible
100
AcDbLine
 10
162.512749
 20
256.54975
 30
0.0
 11
152.089183
 21
256.585084
 31
0.0
  0
LINE
  5
418
330
70
100
AcDbEntity
  8
Visible
100
AcDbLine
 10
63.642416
 20
144.515953
 30
0.0
 11
60.00307
 21
158.048853
 31
0.0
  0
LINE
  5
419
330
70
100
AcDbEntity
  8
Visible
100
AcDbLine
 10
77.175315
 20
148.155298
 30
0.0
 11
63.642416
 21
144.515953
 31
0.0
  0
LINE
  5
41A
330
70
100
AcDbEntity
  8
Visible
100
AcDbLine
 10
73.53597
 20
161.688198
 30
0.0
 11
77.175315
 21
148.155298
 31
0.0
  0
LINE
  5
41B
330
70
100
AcDbEntity
  8
Visible
100
AcDbLine
 10
60.00307
 20
158.048853
 30
0.0
 11
73.53597
 21
161.688198
 31
0.0
  0
SPLINE
  5
41C
330
70
100
AcDbEntity
  8
Visible
100
AcDbSpline
210
0.0
220
0.0
230
1.0
 70
    12
 71
     3
 72
     8
 73
     4
 74
     0
 42
0.000000001
 43
0.0000000001
 40
-1.0
 40
-1.0
 40
-1.0
 40
-1.0
 40
0.0
 40
0.0
 40
0.0
 40
0.0
 10
80.99098899332602
 20
185.3106605112189
 30
0.0
 41
1.0
 10
81.66247533737806
 20
185.3106605112189
 30
0.0
 41
1.0
 10
82.22768326726328
 20
184.7806486795325
 30
0.0
 41
1.0
 10
82.22768326726328
 20
184.0739662372816
 30
0.0
 41
1.0
  0
SPLINE
  5
41D
330
70
100
AcDbEntity
  8
Visible
100
AcDbSpline
210
0.0
220
0.0
230
1.0
 70
    12
 71
     3
 72
     8
 73
     4
 74
     0
 42
0.000000001
 43
0.0000000001
 40
-1.0
 40
-1.0
 40
-1.0
 40
-1.0
 40
0.0
 40
0.0
 40
0.0
 40
0.0
 10
79.75429471938878
 20
184.0739662372816
 30
0.0
 41
1.0
 10
79.75429471938878
 20
184.7447624617616
 30
0.0
 41
1.0
 10
80.31950264927401
 20
185.3106605112189
 30
0.0
 41
1.0
 10
80.99098899332602
 20
185.3106605112189
 30
0.0
 41
1.0
  0
SPLINE
  5
41E
330
70
100
AcDbEntity
  8
Visible
100
AcDbSpline
210
0.0
220
0.0
230
1.0
 70
    12
 71
     3
 72
     8
 73
     4
 74
     0
 42
0.000000001
 43
0.0000000001
 40
-1.0
 40
-1.0
 40
-1.0
 40
-1.0
 40
0.0
 40
0.0
 40
0.0
 40
0.0
 10
80.99098899332602
 20
182.8372719633444
 30
0.0
 41
1.0
 10
80.31950264927401
 20
182.8372719633444
 30
0.0
 41
1.0
 10
79.75429471938878
 20
183.4031700128034
 30
0.0
 41
1.0
 10
79.75429471938878
 20
184.0739662372816
 30
0.0
 41
1.0
  0
SPLINE
  5
41F
330
70
100
AcDbEntity
  8
Visible
100
AcDbSpline
210
0.0
220
0.0
230
1.0
 70
    12
 71
     3
 72
     8
 73
     4
 74
     0
 42
0.000000001
 43
0.0000000001
 40
-1.0
 40
-1.0
 40
-1.0
 40
-1.0
 40
0.0
 40
0.0
 40
0.0
 40
0.0
 10
82.22768326726328
 20
184.0739662372816
 30
0.0
 41
1.0
 10
82.22768326726328
 20
183.3672837950325
 30
0.0
 41
1.0
 10
81.66247533737806
 20
182.8372719633444
 30
0.0
 41
1.0
 10
80.99098899332602
 20
182.8372719633444
 30
0.0
 41
1.0
  0
LINE
  5
420
330
70
100
AcDbEntity
  8
Visible
100
AcDbLine
 10
154.804451
 20
203.311725
 30
0.0
 11
140.776735
 21
203.311725
 31
0.0
  0
LINE
  5
421
330
70
100
AcDbEntity
  8
Visible
100
AcDbLine
 10
154.804451
 20
217.339441
 30
0.0
 11
154.804451
 21
203.311725
 31
0.0
  0
LINE
  5
422
330
70
100
AcDbEntity
  8
Visible
100
AcDbLine
 10
140.776735
 20
217.339441
 30
0.0
 11
154.804451
 21
217.339441
 31
0.0
  0
LINE
  5
423
330
70
100
AcDbEntity
  8
Visible
100
AcDbLine
 10
140.776735
 20
203.311725
 30
0.0
 11
140.776735
 21
217.339441
 31
0.0
  0
SPLINE
  5
424
330
70
100
AcDbEntity
  8
Visible
100
AcDbSpline
210
0.0
220
0.0
230
1.0
 70
    12
 71
     3
 72
     8
 73
     4
 74
     0
 42
0.000000001
 43
0.0000000001
 40
-1.0
 40
-1.0
 40
-1.0
 40
-1.0
 40
0.0
 40
0.0
 40
0.0
 40
0.0
 10
80.99098899332602
 20
225.8745087441984
 30
0.0
 41
1.0
 10
81.66247533737806
 20
225.8745087441984
 30
0.0
 41
1.0
 10
82.22768326726328
 20
225.3444969125121
 30
0.0
 41
1.0
 10
82.22768326726328
 20
224.6378144702612
 30
0.0
 41
1.0
  0
SPLINE
  5
425
330
70
100
AcDbEntity
  8
Visible
100
AcDbSpline
210
0.0
220
0.0
230
1.0
 70
    12
 71
     3
 72
     8
 73
     4
 74
     0
 42
0.000000001
 43
0.0000000001
 40
-1.0
 40
-1.0
 40
-1.0
 40
-1.0
 40
0.0
 40
0.0
 40
0.0
 40
0.0
 10
79.75429471938878
 20
224.6378144702612
 30
0.0
 41
1.0
 10
79.75429471938878
 20
225.3086106947412
 30
0.0
 41
1.0
 10
80.31950264927401
 20
225.8745087441984
 30
0.0
 41
1.0
 10
80.99098899332602
 20
225.8745087441984
 30
0.0
 41
1.0
  0
SPLINE
  5
426
330
70
100
AcDbEntity
  8
Visible
100
AcDbSpline
210
0.0
220
0.0
230
1.0
 70
    12
 71
     3
 72
     8
 73
     4
 74
     0
 42
0.000000001
 43
0.0000000001
 40
-1.0
 40
-1.0
 40
-1.0
 40
-1.0
 40
0.0
 40
0.0
 40
0.0
 40
0.0
 10
80.99098899332602
 20
223.401120196324
 30
0.0
 41
1.0
 10
80.31950264927401
 20
223.401120196324
 30
0.0
 41
1.0
 10
79.75429471938878
 20
223.9670182457812
 30
0.0
 41
1.0
 10
79.75429471938878
 20
224.6378144702612
 30
0.0
 41
1.0
  0
SPLINE
  5
427
330
70
100
AcDbEntity
  8
Visible
100
AcDbSpline
210
0.0
220
0.0
230
1.0
 70
    12
 71
     3
 72
     8
 73
     4
 74
     0
 42
0.000000001
 43
0.0000000001
 40
-1.0
 40
-1.0
 40
-1.0
 40
-1.0
 40
0.0
 40
0.0
 40
0.0
 40
0.0
 10
82.22768326726328
 20
224.6378144702612
 30
0.0
 41
1.0
 10
82.22768326726328
 20
223.9311320280121
 30
0.0
 41
1.0
 10
81.66247533737806
 20
223.401120196324
 30
0.0
 41
1.0
 10
80.99098899332602
 20
223.401120196324
 30
0.0
 41
1.0
  0
SPLINE
  5
428
330
70
100
AcDbEntity
  8
Visible
100
AcDbSpline
210
0.0
220
0.0
230
1.0
 70
    12
 71
     3
 72
     8
 73
     4
 74
     0
 42
0.000000001
 43
0.0000000001
 40
-1.0
 40
-1.0
 40
-1.0
 40
-1.0
 40
0.0
 40
0.0
 40
0.0
 40
0.0
 10
157.1360221457635
 20
182.8027659847194
 30
0.0
 41
1.0
 10
157.8075084898155
 20
182.8027659847194
 30
0.0
 41
1.0
 10
158.3727164197007
 20
182.2727541530312
 30
0.0
 41
1.0
 10
158.3727164197007
 20
181.5660717107821
 30
0.0
 41
1.0
  0
SPLINE
  5
429
330
70
100
AcDbEntity
  8
Visible
100
AcDbSpline
210
0.0
220
0.0
230
1.0
 70
    12
 71
     3
 72
     8
 73
     4
 74
     0
 42
0.000000001
 43
0.0000000001
 40
-1.0
 40
-1.0
 40
-1.0
 40
-1.0
 40
0.0
 40
0.0
 40
0.0
 40
0.0
 10
155.8993278718262
 20
181.5660717107821
 30
0.0
 41
1.0
 10
155.8993278718262
 20
182.2368679352603
 30
0.0
 41
1.0
 10
156.4645358017114
 20
182.8027659847194
 30
0.0
 41
1.0
 10
157.1360221457635
 20
182.8027659847194
 30
0.0
 41
1.0
  0
SPLINE
  5
42A
330
70
100
AcDbEntity
  8
Visible
100
AcDbSpline
210
0.0
220
0.0
230
1.0
 70
    12
 71
     3
 72
     8
 73
     4
 74
     0
 42
0.000000001
 43
0.0000000001
 40
-1.0
 40
-1.0
 40
-1.0
 40
-1.0
 40
0.0
 40
0.0
 40
0.0
 40
0.0
 10
157.1360221457635
 20
180.3293774368448
 30
0.0
 41
1.0
 10
156.4645358017114
 20
180.3293774368448
 30
0.0
 41
1.0
 10
155.8993278718262
 20
180.8952754863021
 30
0.0
 41
1.0
 10
155.8993278718262
 20
181.5660717107821
 30
0.0
 41
1.0
  0
SPLINE
  5
42B
330
70
100
AcDbEntity
  8
Visible
100
AcDbSpline
210
0.0
220
0.0
230
1.0
 70
    12
 71
     3
 72
     8
 73
     4
 74
     0
 42
0.000000001
 43
0.0000000001
 40
-1.0
 40
-1.0
 40
-1.0
 40
-1.0
 40
0.0
 40
0.0
 40
0.0
 40
0.0
 10
158.3727164197007
 20
181.5660717107821
 30
0.0
 41
1.0
 10
158.3727164197007
 20
180.8593892685312
 30
0.0
 41
1.0
 10
157.8075084898155
 20
180.3293774368448
 30
0.0
 41
1.0
 10
157.1360221457635
 20
180.3293774368448
 30
0.0
 41
1.0
  0
LINE
  5
42C
330
70
100
AcDbEntity
  8
Visible
100
AcDbLine
 10
97.527632
 20
208.011094
 30
0.0
 11
83.499916
 21
208.011094
 31
0.0
  0
LINE
  5
42D
330
70
100
AcDbEntity
  8
Visible
100
AcDbLine
 10
97.527632
 20
222.03881
 30
0.0
 11
97.527632
 21
208.011094
 31
0.0
  0
LINE
  5
42E
330
70
100
AcDbEntity
  8
Visible
100
AcDbLine
 10
83.499916
 20
222.03881
 30
0.0
 11
97.527632
 21
222.03881
 31
0.0
  0
LINE
  5
42F
330
70
100
AcDbEntity
  8
Visible
100
AcDbLine
 10
83.499916
 20
208.011094
 30
0.0
 11
83.499916
 21
222.03881
 31
0.0
  0
LINE
  5
430
330
70
100
AcDbEntity
  8
Visible
100
AcDbLine
 10
97.527977
 20
164.833073
 30
0.0
 11
97.527977
 21
150.805358
 31
0.0
  0
LINE
  5
431
330
70
100
AcDbEntity
  8
Visible
100
AcDbLine
 10
83.500261
 20
164.833073
 30
0.0
 11
97.527977
 21
164.833073
 31
0.0
  0
LINE
  5
432
330
70
100
AcDbEntity
  8
Visible
100
AcDbLine
 10
83.500261
 20
150.805358
 30
0.0
 11
83.500261
 21
164.833073
 31
0.0
  0
LINE
  5
433
330
70
100
AcDbEntity
  8
Visible
100
AcDbLine
 10
97.527977
 20
150.805358
 30
0.0
 11
83.500261
 21
150.805358
 31
0.0
  0
LINE
  5
434
330
70
100
AcDbEntity
  8
Visible
100
AcDbLine
 10
83.499916
 20
227.127061
 30
0.0
 11
83.499916
 21
241.154777
 31
0.0
  0
LINE
  5
435
330
70
100
AcDbEntity
  8
Visible
100
AcDbLine
 10
97.527632
 20
227.127061
 30
0.0
 11
83.499916
 21
227.127061
 31
0.0
  0
LINE
  5
436
330
70
100
AcDbEntity
  8
Visible
100
AcDbLine
 10
97.527632
 20
241.154777
 30
0.0
 11
97.527632
 21
227.127061
 31
0.0
  0
LINE
  5
437
330
70
100
AcDbEntity
  8
Visible
100
AcDbLine
 10
83.499916
 20
241.154777
 30
0.0
 11
97.527632
 21
241.154777
 31
0.0
  0
LINE
  5
438
330
70
100
AcDbEntity
  8
Visible
100
AcDbLine
 10
102.615883
 20
186.386888
 30
0.0
 11
116.643599
 21
186.386888
 31
0.0
  0
LINE
  5
439
330
70
100
AcDbEntity
  8
Visible
100
AcDbLine
 10
102.615883
 20
172.359172
 30
0.0
 11
102.615883
 21
186.386888
 31
0.0
  0
LINE
  5
43A
330
70
100
AcDbEntity
  8
Visible
100
AcDbLine
 10
116.643599
 20
172.359172
 30
0.0
 11
102.615883
 21
172.359172
 31
0.0
  0
LINE
  5
43B
330
70
100
AcDbEntity
  8
Visible
100
AcDbLine
 10
116.643599
 20
186.386888
 30
0.0
 11
116.643599
 21
172.359172
 31
0.0
  0
LINE
  5
43C
330
70
100
AcDbEntity
  8
Visible
100
AcDbLine
 10
121.661113
 20
241.119581
 30
0.0
 11
135.688829
 21
241.119581
 31
0.0
  0
LINE
  5
43D
330
70
100
AcDbEntity
  8
Visible
100
AcDbLine
 10
121.661113
 20
227.091865
 30
0.0
 11
121.661113
 21
241.119581
 31
0.0
  0
LINE
  5
43E
330
70
100
AcDbEntity
  8
Visible
100
AcDbLine
 10
135.688829
 20
227.091865
 30
0.0
 11
121.661113
 21
227.091865
 31
0.0
  0
LINE
  5
43F
330
70
100
AcDbEntity
  8
Visible
100
AcDbLine
 10
135.688829
 20
241.119581
 30
0.0
 11
135.688829
 21
227.091865
 31
0.0
  0
SPLINE
  5
440
330
70
100
AcDbEntity
  8
Visible
100
AcDbSpline
210
0.0
220
0.0
230
1.0
 70
    12
 71
     3
 72
     8
 73
     4
 74
     0
 42
0.000000001
 43
0.0000000001
 40
-1.0
 40
-1.0
 40
-1.0
 40
-1.0
 40
0.0
 40
0.0
 40
0.0
 40
0.0
 10
71.81005826781256
 20
253.0870057305383
 30
0.0
 41
1.0
 10
73.25875403949066
 20
253.1576735703966
 30
0.0
 41
1.0
 10
74.46011742624978
 20
252.0623163240653
 30
0.0
 41
1.0
 10
74.5307845921634
 20
250.6136171826638
 30
0.0
 41
1.0
  0
SPLINE
  5
441
330
70
100
AcDbEntity
  8
Visible
100
AcDbSpline
210
0.0
220
0.0
230
1.0
 70
    12
 71
     3
 72
     8
 73
     4
 74
     0
 42
0.000000001
 43
0.0000000001
 40
-1.0
 40
-1.0
 40
-1.0
 40
-1.0
 40
0.0
 40
0.0
 40
0.0
 40
0.0
 10
69.33666971993807
 20
250.3662787322428
 30
0.0
 41
1.0
 10
69.26600255402445
 20
251.8149771996996
 30
0.0
 41
1.0
 10
70.36135980035578
 20
253.0163372167353
 30
0.0
 41
1.0
 10
71.81005826781256
 20
253.0870057305383
 30
0.0
 41
1.0
  0
SPLINE
  5
442
330
70
100
AcDbEntity
  8
Visible
100
AcDbSpline
210
0.0
220
0.0
230
1.0
 70
    12
 71
     3
 72
     8
 73
     4
 74
     0
 42
0.000000001
 43
0.0000000001
 40
-1.0
 40
-1.0
 40
-1.0
 40
-1.0
 40
0.0
 40
0.0
 40
0.0
 40
0.0
 10
72.05739604428891
 20
247.8928901843683
 30
0.0
 41
1.0
 10
70.60869757683213
 20
247.8222216705654
 30
0.0
 41
1.0
 10
69.40733688585169
 20
248.917580264786
 30
0.0
 41
1.0
 10
69.33666971993807
 20
250.3662787322428
 30
0.0
 41
1.0
  0
SPLINE
  5
443
330
70
100
AcDbEntity
  8
Visible
100
AcDbSpline
210
0.0
220
0.0
230
1.0
 70
    12
 71
     3
 72
     8
 73
     4
 74
     0
 42
0.000000001
 43
0.0000000001
 40
-1.0
 40
-1.0
 40
-1.0
 40
-1.0
 40
0.0
 40
0.0
 40
0.0
 40
0.0
 10
74.5307845921634
 20
250.6136171826638
 30
0.0
 41
1.0
 10
74.60145175807702
 20
249.1649180412624
 30
0.0
 41
1.0
 10
73.47076092878888
 20
247.9635573502801
 30
0.0
 41
1.0
 10
72.05739604428891
 20
247.8928901843683
 30
0.0
 41
1.0
  0
SPLINE
  5
444
330
70
100
AcDbEntity
  8
Visible
100
AcDbSpline
210
0.0
220
0.0
230
1.0
 70
    12
 71
     3
 72
     8
 73
     4
 74
     0
 42
0.000000001
 43
0.0000000001
 40
-1.0
 40
-1.0
 40
-1.0
 40
-1.0
 40
0.0
 40
0.0
 40
0.0
 40
0.0
 10
184.1372249152682
 20
172.1718681147467
 30
0.0
 41
1.0
 10
184.1372249152682
 20
170.7231723430705
 30
0.0
 41
1.0
 10
182.9712031988037
 20
169.5571452350468
 30
0.0
 41
1.0
 10
181.5225020355665
 20
169.5571452350468
 30
0.0
 41
1.0
  0
SPLINE
  5
445
330
70
100
AcDbEntity
  8
Visible
100
AcDbSpline
210
0.0
220
0.0
230
1.0
 70
    12
 71
     3
 72
     8
 73
     4
 74
     0
 42
0.000000001
 43
0.0000000001
 40
-1.0
 40
-1.0
 40
-1.0
 40
-1.0
 40
0.0
 40
0.0
 40
0.0
 40
0.0
 10
181.5225020355665
 20
174.7865909944485
 30
0.0
 41
1.0
 10
182.9712031988037
 20
174.7865909944485
 30
0.0
 41
1.0
 10
184.1372249152682
 20
173.620569277984
 30
0.0
 41
1.0
 10
184.1372249152682
 20
172.1718681147467
 30
0.0
 41
1.0
  0
SPLINE
  5
446
330
70
100
AcDbEntity
  8
Visible
100
AcDbSpline
210
0.0
220
0.0
230
1.0
 70
    12
 71
     3
 72
     8
 73
     4
 74
     0
 42
0.000000001
 43
0.0000000001
 40
-1.0
 40
-1.0
 40
-1.0
 40
-1.0
 40
0.0
 40
0.0
 40
0.0
 40
0.0
 10
178.9077791558647
 20
172.1718681147467
 30
0.0
 41
1.0
 10
178.9077791558647
 20
173.6205638864248
 30
0.0
 41
1.0
 10
180.073800872331
 20
174.7865909944485
 30
0.0
 41
1.0
 10
181.5225020355665
 20
174.7865909944485
 30
0.0
 41
1.0
  0
SPLINE
  5
447
330
70
100
AcDbEntity
  8
Visible
100
AcDbSpline
210
0.0
220
0.0
230
1.0
 70
    12
 71
     3
 72
     8
 73
     4
 74
     0
 42
0.000000001
 43
0.0000000001
 40
-1.0
 40
-1.0
 40
-1.0
 40
-1.0
 40
0.0
 40
0.0
 40
0.0
 40
0.0
 10
181.5225020355665
 20
169.5571452350468
 30
0.0
 41
1.0
 10
180.073800872331
 20
169.5571452350468
 30
0.0
 41
1.0
 10
178.9077791558647
 20
170.7231723430705
 30
0.0
 41
1.0
 10
178.9077791558647
 20
172.1718681147467
 30
0.0
 41
1.0
  0
SPLINE
  5
448
330
70
100
AcDbEntity
  8
Visible
100
AcDbSpline
210
0.0
220
0.0
230
1.0
 70
    12
 71
     3
 72
     8
 73
     4
 74
     0
 42
0.000000001
 43
0.0000000001
 40
-1.0
 40
-1.0
 40
-1.0
 40
-1.0
 40
0.0
 40
0.0
 40
0.0
 40
0.0
 10
31.70582663737332
 20
140.6891631558865
 30
0.0
 41
1.0
 10
30.99914419512243
 20
141.9611937085592
 30
0.0
 41
1.0
 10
31.42315359307941
 20
143.5512292036219
 30
0.0
 41
1.0
 10
32.65984786701665
 20
144.2579116458728
 30
0.0
 41
1.0
  0
SPLINE
  5
449
330
70
100
AcDbEntity
  8
Visible
100
AcDbSpline
210
0.0
220
0.0
230
1.0
 70
    12
 71
     3
 72
     8
 73
     4
 74
     0
 42
0.000000001
 43
0.0000000001
 40
-1.0
 40
-1.0
 40
-1.0
 40
-1.0
 40
0.0
 40
0.0
 40
0.0
 40
0.0
 10
35.27457276855239
 20
139.7351375456019
 30
0.0
 41
1.0
 10
34.00254491165834
 20
139.028455103351
 30
0.0
 41
1.0
 10
32.4125090796224
 20
139.4524688819492
 30
0.0
 41
1.0
 10
31.70582663737332
 20
140.6891631558865
 30
0.0
 41
1.0
  0
SPLINE
  5
44A
330
70
100
AcDbEntity
  8
Visible
100
AcDbSpline
210
0.0
220
0.0
230
1.0
 70
    12
 71
     3
 72
     8
 73
     4
 74
     0
 42
0.000000001
 43
0.0000000001
 40
-1.0
 40
-1.0
 40
-1.0
 40
-1.0
 40
0.0
 40
0.0
 40
0.0
 40
0.0
 10
36.22859433516715
 20
143.3038860355882
 30
0.0
 41
1.0
 10
36.93527677741804
 20
142.0318554829137
 30
0.0
 41
1.0
 10
36.51126704248964
 20
140.4418199878509
 30
0.0
 41
1.0
 10
35.27457276855239
 20
139.7351375456019
 30
0.0
 41
1.0
  0
SPLINE
  5
44B
330
70
100
AcDbEntity
  8
Visible
100
AcDbSpline
210
0.0
220
0.0
230
1.0
 70
    12
 71
     3
 72
     8
 73
     4
 74
     0
 42
0.000000001
 43
0.0000000001
 40
-1.0
 40
-1.0
 40
-1.0
 40
-1.0
 40
0.0
 40
0.0
 40
0.0
 40
0.0
 10
32.65984786701665
 20
144.2579116458728
 30
0.0
 41
1.0
 10
33.93187639785538
 20
144.9645940881219
 30
0.0
 41
1.0
 10
35.52191189291807
 20
144.5405803095255
 30
0.0
 41
1.0
 10
36.22859433516715
 20
143.3038860355882
 30
0.0
 41
1.0
  0
LINE
  5
44C
330
70
100
AcDbEntity
  8
Visible
100
AcDbLine
 10
102.615883
 20
229.635646
 30
0.0
 11
102.615883
 21
243.663362
 31
0.0
  0
LINE
  5
44D
330
70
100
AcDbEntity
  8
Visible
100
AcDbLine
 10
116.643599
 20
229.635646
 30
0.0
 11
102.615883
 21
229.635646
 31
0.0
  0
LINE
  5
44E
330
70
100
AcDbEntity
  8
Visible
100
AcDbLine
 10
116.643599
 20
243.663362
 30
0.0
 11
116.643599
 21
229.635646
 31
0.0
  0
LINE
  5
44F
330
70
100
AcDbEntity
  8
Visible
100
AcDbLine
 10
102.615883
 20
243.663362
 30
0.0
 11
116.643599
 21
243.663362
 31
0.0
  0
LINE
  5
450
330
70
100
AcDbEntity
  8
Visible
100
AcDbLine
 10
140.776735
 20
198.082344
 30
0.0
 11
154.804451
 21
198.082344
 31
0.0
  0
LINE
  5
451
330
70
100
AcDbEntity
  8
Visible
100
AcDbLine
 10
140.776735
 20
184.054629
 30
0.0
 11
140.776735
 21
198.082344
 31
0.0
  0
LINE
  5
452
330
70
100
AcDbEntity
  8
Visible
100
AcDbLine
 10
154.804451
 20
184.054629
 30
0.0
 11
140.776735
 21
184.054629
 31
0.0
  0
LINE
  5
453
330
70
100
AcDbEntity
  8
Visible
100
AcDbLine
 10
154.804451
 20
198.082344
 30
0.0
 11
154.804451
 21
184.054629
 31
0.0
  0
LINE
  5
454
330
70
100
AcDbEntity
  8
Visible
100
AcDbLine
 10
135.688484
 20
208.046635
 30
0.0
 11
121.660768
 21
208.046635
 31
0.0
  0
LINE
  5
455
330
70
100
AcDbEntity
  8
Visible
100
AcDbLine
 10
135.688484
 20
222.074351
 30
0.0
 11
135.688484
 21
208.046635
 31
0.0
  0
LINE
  5
456
330
70
100
AcDbEntity
  8
Visible
100
AcDbLine
 10
121.660768
 20
222.074351
 30
0.0
 11
135.688484
 21
222.074351
 31
0.0
  0
LINE
  5
457
330
70
100
AcDbEntity
  8
Visible
100
AcDbLine
 10
121.660768
 20
208.046635
 30
0.0
 11
121.660768
 21
222.074351
 31
0.0
  0
LINE
  5
458
330
70
100
AcDbEntity
  8
Visible
100
AcDbLine
 10
121.661113
 20
164.72714
 30
0.0
 11
135.688829
 21
164.72714
 31
0.0
  0
LINE
  5
459
330
70
100
AcDbEntity
  8
Visible
100
AcDbLine
 10
121.661113
 20
150.699424
 30
0.0
 11
121.661113
 21
164.72714
 31
0.0
  0
LINE
  5
45A
330
70
100
AcDbEntity
  8
Visible
100
AcDbLine
 10
135.688829
 20
150.699424
 30
0.0
 11
121.661113
 21
150.699424
 31
0.0
  0
LINE
  5
45B
330
70
100
AcDbEntity
  8
Visible
100
AcDbLine
 10
135.688829
 20
164.72714
 30
0.0
 11
135.688829
 21
150.699424
 31
0.0
  0
LINE
  5
45C
330
70
100
AcDbEntity
  8
Visible
100
AcDbLine
 10
58.766376
 20
183.065342
 30
0.0
 11
58.766376
 21
170.168388
 31
0.0
  0
LINE
  5
45D
330
70
100
AcDbEntity
  8
Visible
100
AcDbLine
 10
43.148625
 20
183.065342
 30
0.0
 11
58.766376
 21
183.065342
 31
0.0
  0
SPLINE
  5
45E
330
70
100
AcDbEntity
  8
Visible
100
AcDbSpline
210
0.0
220
0.0
230
1.0
 70
     8
 71
     2
 72
     6
 73
     3
 74
     0
 42
0.000000001
 43
0.0000000001
 40
-0.9630507601132473
 40
-0.9630507601132473
 40
-0.9630507601132473
 40
0.0
 40
0.0
 40
0.0
 10
43.15112959036196
 20
170.1683875565104
 30
0.0
 10
43.1825203840217
 20
170.406653890639
 30
0.0
 10
43.14862475489826
 20
183.0653421275729
 30
0.0
  0
LINE
  5
45F
330
70
100
AcDbEntity
  8
Visible
100
AcDbLine
 10
43.148625
 20
170.168388
 30
0.0
 11
43.15113
 21
170.168388
 31
0.0
  0
SPLINE
  5
460
330
70
100
AcDbEntity
  8
Visible
100
AcDbSpline
210
0.0
220
0.0
230
1.0
 70
     8
 71
     2
 72
     6
 73
     3
 74
     0
 42
0.000000001
 43
0.0000000001
 40
0.9630507601133651
 40
0.9630507601133651
 40
0.9630507601133651
 40
1.0
 40
1.0
 40
1.0
 10
43.15112959036196
 20
170.1683875565104
 30
0.0
 10
43.14992522397369
 20
170.1592460238917
 30
0.0
 10
43.14862475489826
 20
170.1683875565104
 30
0.0
  0
LINE
  5
461
330
70
100
AcDbEntity
  8
Visible
100
AcDbLine
 10
58.766376
 20
170.168388
 30
0.0
 11
43.15113
 21
170.168388
 31
0.0
  0
LINE
  5
462
330
70
100
AcDbEntity
  8
Visible
100
AcDbLine
 10
140.776735
 20
236.243196
 30
0.0
 11
154.804451
 21
236.243196
 31
0.0
  0
LINE
  5
463
330
70
100
AcDbEntity
  8
Visible
100
AcDbLine
 10
140.776735
 20
222.21548
 30
0.0
 11
140.776735
 21
236.243196
 31
0.0
  0
LINE
  5
464
330
70
100
AcDbEntity
  8
Visible
100
AcDbLine
 10
154.804451
 20
222.21548
 30
0.0
 11
140.776735
 21
222.21548
 31
0.0
  0
LINE
  5
465
330
70
100
AcDbEntity
  8
Visible
100
AcDbLine
 10
154.804451
 20
236.243196
 30
0.0
 11
154.804451
 21
222.21548
 31
0.0
  0
LINE
  5
466
330
70
100
AcDbEntity
  8
Visible
100
AcDbLine
 10
154.804451
 20
179.072655
 30
0.0
 11
154.804451
 21
165.04494
 31
0.0
  0
LINE
  5
467
330
70
100
AcDbEntity
  8
Visible
100
AcDbLine
 10
140.776735
 20
179.072655
 30
0.0
 11
154.804451
 21
179.072655
 31
0.0
  0
LINE
  5
468
330
70
100
AcDbEntity
  8
Visible
100
AcDbLine
 10
140.776735
 20
165.04494
 30
0.0
 11
140.776735
 21
179.072655
 31
0.0
  0
LINE
  5
469
330
70
100
AcDbEntity
  8
Visible
100
AcDbLine
 10
154.804451
 20
165.04494
 30
0.0
 11
140.776735
 21
165.04494
 31
0.0
  0
LINE
  5
46A
330
70
100
AcDbEntity
  8
Visible
100
AcDbLine
 10
102.615883
 20
153.24355
 30
0.0
 11
102.615883
 21
167.271266
 31
0.0
  0
LINE
  5
46B
330
70
100
AcDbEntity
  8
Visible
100
AcDbLine
 10
116.643599
 20
153.24355
 30
0.0
 11
102.615883
 21
153.24355
 31
0.0
  0
LINE
  5
46C
330
70
100
AcDbEntity
  8
Visible
100
AcDbLine
 10
116.643599
 20
167.271266
 30
0.0
 11
116.643599
 21
153.24355
 31
0.0
  0
LINE
  5
46D
330
70
100
AcDbEntity
  8
Visible
100
AcDbLine
 10
102.615883
 20
167.271266
 30
0.0
 11
116.643599
 21
167.271266
 31
0.0
  0
LINE
  5
46E
330
70
100
AcDbEntity
  8
Visible
100
AcDbLine
 10
159.857161
 20
165.04494
 30
0.0
 11
159.857161
 21
179.072655
 31
0.0
  0
LINE
  5
46F
330
70
100
AcDbEntity
  8
Visible
100
AcDbLine
 10
173.884877
 20
165.04494
 30
0.0
 11
159.857161
 21
165.04494
 31
0.0
  0
LINE
  5
470
330
70
100
AcDbEntity
  8
Visible
100
AcDbLine
 10
173.884877
 20
179.072655
 30
0.0
 11
173.884877
 21
165.04494
 31
0.0
  0
LINE
  5
471
330
70
100
AcDbEntity
  8
Visible
100
AcDbLine
 10
159.857161
 20
179.072655
 30
0.0
 11
173.884877
 21
179.072655
 31
0.0
  0
SPLINE
  5
472
330
70
100
AcDbEntity
  8
Visible
100
AcDbSpline
210
0.0
220
0.0
230
1.0
 70
    12
 71
     3
 72
     8
 73
     4
 74
     0
 42
0.000000001
 43
0.0000000001
 40
-1.0
 40
-1.0
 40
-1.0
 40
-1.0
 40
0.0
 40
0.0
 40
0.0
 40
0.0
 10
157.1360221457635
 20
221.351465065969
 30
0.0
 41
1.0
 10
157.8075084898155
 20
221.351465065969
 30
0.0
 41
1.0
 10
158.3727164197007
 20
220.8214532342827
 30
0.0
 41
1.0
 10
158.3727164197007
 20
220.1147707920318
 30
0.0
 41
1.0
  0
SPLINE
  5
473
330
70
100
AcDbEntity
  8
Visible
100
AcDbSpline
210
0.0
220
0.0
230
1.0
 70
    12
 71
     3
 72
     8
 73
     4
 74
     0
 42
0.000000001
 43
0.0000000001
 40
-1.0
 40
-1.0
 40
-1.0
 40
-1.0
 40
0.0
 40
0.0
 40
0.0
 40
0.0
 10
155.8993278718262
 20
220.1147707920318
 30
0.0
 41
1.0
 10
155.8993278718262
 20
220.7855670165118
 30
0.0
 41
1.0
 10
156.4645358017114
 20
221.351465065969
 30
0.0
 41
1.0
 10
157.1360221457635
 20
221.351465065969
 30
0.0
 41
1.0
  0
SPLINE
  5
474
330
70
100
AcDbEntity
  8
Visible
100
AcDbSpline
210
0.0
220
0.0
230
1.0
 70
    12
 71
     3
 72
     8
 73
     4
 74
     0
 42
0.000000001
 43
0.0000000001
 40
-1.0
 40
-1.0
 40
-1.0
 40
-1.0
 40
0.0
 40
0.0
 40
0.0
 40
0.0
 10
157.1360221457635
 20
218.8780765180945
 30
0.0
 41
1.0
 10
156.4645358017114
 20
218.8780765180945
 30
0.0
 41
1.0
 10
155.8993278718262
 20
219.4439745675536
 30
0.0
 41
1.0
 10
155.8993278718262
 20
220.1147707920318
 30
0.0
 41
1.0
  0
SPLINE
  5
475
330
70
100
AcDbEntity
  8
Visible
100
AcDbSpline
210
0.0
220
0.0
230
1.0
 70
    12
 71
     3
 72
     8
 73
     4
 74
     0
 42
0.000000001
 43
0.0000000001
 40
-1.0
 40
-1.0
 40
-1.0
 40
-1.0
 40
0.0
 40
0.0
 40
0.0
 40
0.0
 10
158.3727164197007
 20
220.1147707920318
 30
0.0
 41
1.0
 10
158.3727164197007
 20
219.4439745675536
 30
0.0
 41
1.0
 10
157.8075084898155
 20
218.8780765180945
 30
0.0
 41
1.0
 10
157.1360221457635
 20
218.8780765180945
 30
0.0
 41
1.0
  0
LINE
  5
476
330
70
100
AcDbEntity
  8
Visible
100
AcDbLine
 10
83.499916
 20
188.96621
 30
0.0
 11
83.499916
 21
202.993925
 31
0.0
  0
LINE
  5
477
330
70
100
AcDbEntity
  8
Visible
100
AcDbLine
 10
97.527632
 20
188.96621
 30
0.0
 11
83.499916
 21
188.96621
 31
0.0
  0
LINE
  5
478
330
70
100
AcDbEntity
  8
Visible
100
AcDbLine
 10
97.527632
 20
202.993925
 30
0.0
 11
97.527632
 21
188.96621
 31
0.0
  0
LINE
  5
479
330
70
100
AcDbEntity
  8
Visible
100
AcDbLine
 10
83.499916
 20
202.993925
 30
0.0
 11
97.527632
 21
202.993925
 31
0.0
  0
SPLINE
  5
47A
330
70
100
AcDbEntity
  8
Visible
100
AcDbSpline
210
0.0
220
0.0
230
1.0
 70
    12
 71
     3
 72
     8
 73
     4
 74
     0
 42
0.000000001
 43
0.0000000001
 40
-1.0
 40
-1.0
 40
-1.0
 40
-1.0
 40
0.0
 40
0.0
 40
0.0
 40
0.0
 10
53.96038557726388
 20
163.7568460225939
 30
0.0
 41
1.0
 10
54.63187192131591
 20
163.7568460225939
 30
0.0
 41
1.0
 10
55.19707985120112
 20
163.2268341909075
 30
0.0
 41
1.0
 10
55.19707985120112
 20
162.5201517486566
 30
0.0
 41
1.0
  0
SPLINE
  5
47B
330
70
100
AcDbEntity
  8
Visible
100
AcDbSpline
210
0.0
220
0.0
230
1.0
 70
    12
 71
     3
 72
     8
 73
     4
 74
     0
 42
0.000000001
 43
0.0000000001
 40
-1.0
 40
-1.0
 40
-1.0
 40
-1.0
 40
0.0
 40
0.0
 40
0.0
 40
0.0
 10
52.72369130332482
 20
162.5201517486566
 30
0.0
 41
1.0
 10
52.72369130332482
 20
163.1909479731366
 30
0.0
 41
1.0
 10
53.28889923321185
 20
163.7568460225939
 30
0.0
 41
1.0
 10
53.96038557726388
 20
163.7568460225939
 30
0.0
 41
1.0
  0
SPLINE
  5
47C
330
70
100
AcDbEntity
  8
Visible
100
AcDbSpline
210
0.0
220
0.0
230
1.0
 70
    12
 71
     3
 72
     8
 73
     4
 74
     0
 42
0.000000001
 43
0.0000000001
 40
-1.0
 40
-1.0
 40
-1.0
 40
-1.0
 40
0.0
 40
0.0
 40
0.0
 40
0.0
 10
53.96038557726388
 20
161.2834574747194
 30
0.0
 41
1.0
 10
53.28889923321185
 20
161.2834574747194
 30
0.0
 41
1.0
 10
52.72369130332482
 20
161.8493555241766
 30
0.0
 41
1.0
 10
52.72369130332482
 20
162.5201517486566
 30
0.0
 41
1.0
  0
SPLINE
  5
47D
330
70
100
AcDbEntity
  8
Visible
100
AcDbSpline
210
0.0
220
0.0
230
1.0
 70
    12
 71
     3
 72
     8
 73
     4
 74
     0
 42
0.000000001
 43
0.0000000001
 40
-1.0
 40
-1.0
 40
-1.0
 40
-1.0
 40
0.0
 40
0.0
 40
0.0
 40
0.0
 10
55.19707985120112
 20
162.5201517486566
 30
0.0
 41
1.0
 10
55.19707985120112
 20
161.8493555241766
 30
0.0
 41
1.0
 10
54.63187192131591
 20
161.2834574747194
 30
0.0
 41
1.0
 10
53.96038557726388
 20
161.2834574747194
 30
0.0
 41
1.0
  0
LINE
  5
47E
330
70
100
AcDbEntity
  8
Visible
100
AcDbLine
 10
64.455031
 20
205.50251
 30
0.0
 11
64.455031
 21
219.530225
 31
0.0
  0
LINE
  5
47F
330
70
100
AcDbEntity
  8
Visible
100
AcDbLine
 10
78.482747
 20
205.50251
 30
0.0
 11
64.455031
 21
205.50251
 31
0.0
  0
LINE
  5
480
330
70
100
AcDbEntity
  8
Visible
100
AcDbLine
 10
78.482747
 20
219.530225
 30
0.0
 11
78.482747
 21
205.50251
 31
0.0
  0
LINE
  5
481
330
70
100
AcDbEntity
  8
Visible
100
AcDbLine
 10
64.455031
 20
219.530225
 30
0.0
 11
78.482747
 21
219.530225
 31
0.0
  0
LINE
  5
482
330
70
100
AcDbEntity
  8
Visible
100
AcDbLine
 10
64.455031
 20
167.447591
 30
0.0
 11
64.455031
 21
181.475307
 31
0.0
  0
LINE
  5
483
330
70
100
AcDbEntity
  8
Visible
100
AcDbLine
 10
78.482747
 20
167.447591
 30
0.0
 11
64.455031
 21
167.447591
 31
0.0
  0
LINE
  5
484
330
70
100
AcDbEntity
  8
Visible
100
AcDbLine
 10
78.482747
 20
181.475307
 30
0.0
 11
78.482747
 21
167.447591
 31
0.0
  0
LINE
  5
485
330
70
100
AcDbEntity
  8
Visible
100
AcDbLine
 10
64.455031
 20
181.475307
 30
0.0
 11
78.482747
 21
181.475307
 31
0.0
  0
LINE
  5
486
330
70
100
AcDbEntity
  8
Visible
100
AcDbLine
 10
159.821965
 20
198.082344
 30
0.0
 11
173.84968
 21
198.082344
 31
0.0
  0
LINE
  5
487
330
70
100
AcDbEntity
  8
Visible
100
AcDbLine
 10
159.821965
 20
184.054629
 30
0.0
 11
159.821965
 21
198.082344
 31
0.0
  0
LINE
  5
488
330
70
100
AcDbEntity
  8
Visible
100
AcDbLine
 10
173.84968
 20
184.054629
 30
0.0
 11
159.821965
 21
184.054629
 31
0.0
  0
LINE
  5
489
330
70
100
AcDbEntity
  8
Visible
100
AcDbLine
 10
173.84968
 20
198.082344
 30
0.0
 11
173.84968
 21
184.054629
 31
0.0
  0
LINE
  5
48A
330
70
100
AcDbEntity
  8
Visible
100
AcDbLine
 10
116.643599
 20
205.431772
 30
0.0
 11
116.643599
 21
191.404057
 31
0.0
  0
LINE
  5
48B
330
70
100
AcDbEntity
  8
Visible
100
AcDbLine
 10
102.615883
 20
205.431772
 30
0.0
 11
116.643599
 21
205.431772
 31
0.0
  0
LINE
  5
48C
330
70
100
AcDbEntity
  8
Visible
100
AcDbLine
 10
102.615883
 20
191.404057
 30
0.0
 11
102.615883
 21
205.431772
 31
0.0
  0
LINE
  5
48D
330
70
100
AcDbEntity
  8
Visible
100
AcDbLine
 10
116.643599
 20
191.404057
 30
0.0
 11
102.615883
 21
191.404057
 31
0.0
  0
LINE
  5
48E
330
70
100
AcDbEntity
  8
Visible
100
AcDbLine
 10
102.615883
 20
224.54774
 30
0.0
 11
116.643599
 21
224.54774
 31
0.0
  0
LINE
  5
48F
330
70
100
AcDbEntity
  8
Visible
100
AcDbLine
 10
102.615883
 20
210.520024
 30
0.0
 11
102.615883
 21
224.54774
 31
0.0
  0
LINE
  5
490
330
70
100
AcDbEntity
  8
Visible
100
AcDbLine
 10
116.643599
 20
210.520024
 30
0.0
 11
102.615883
 21
210.520024
 31
0.0
  0
LINE
  5
491
330
70
100
AcDbEntity
  8
Visible
100
AcDbLine
 10
116.643599
 20
224.54774
 30
0.0
 11
116.643599
 21
210.520024
 31
0.0
  0
LINE
  5
492
330
70
100
AcDbEntity
  8
Visible
100
AcDbLine
 10
83.500261
 20
183.878303
 30
0.0
 11
97.527977
 21
183.878303
 31
0.0
  0
LINE
  5
493
330
70
100
AcDbEntity
  8
Visible
100
AcDbLine
 10
83.500261
 20
169.850587
 30
0.0
 11
83.500261
 21
183.878303
 31
0.0
  0
LINE
  5
494
330
70
100
AcDbEntity
  8
Visible
100
AcDbLine
 10
97.527977
 20
169.850587
 30
0.0
 11
83.500261
 21
169.850587
 31
0.0
  0
LINE
  5
495
330
70
100
AcDbEntity
  8
Visible
100
AcDbLine
 10
97.527977
 20
183.878303
 30
0.0
 11
97.527977
 21
169.850587
 31
0.0
  0
LINE
  5
496
330
70
100
AcDbEntity
  8
Visible
100
AcDbLine
 10
173.849335
 20
203.311725
 30
0.0
 11
159.82162
 21
203.311725
 31
0.0
  0
LINE
  5
497
330
70
100
AcDbEntity
  8
Visible
100
AcDbLine
 10
173.849335
 20
217.339441
 30
0.0
 11
173.849335
 21
203.311725
 31
0.0
  0
LINE
  5
498
330
70
100
AcDbEntity
  8
Visible
100
AcDbLine
 10
159.82162
 20
217.339441
 30
0.0
 11
173.849335
 21
217.339441
 31
0.0
  0
LINE
  5
499
330
70
100
AcDbEntity
  8
Visible
100
AcDbLine
 10
159.82162
 20
203.311725
 30
0.0
 11
159.82162
 21
217.339441
 31
0.0
  0
LINE
  5
49A
330
70
100
AcDbEntity
  8
Visible
100
AcDbLine
 10
121.660768
 20
188.96621
 30
0.0
 11
121.660768
 21
202.993925
 31
0.0
  0
LINE
  5
49B
330
70
100
AcDbEntity
  8
Visible
100
AcDbLine
 10
135.688484
 20
188.96621
 30
0.0
 11
121.660768
 21
188.96621
 31
0.0
  0
LINE
  5
49C
330
70
100
AcDbEntity
  8
Visible
100
AcDbLine
 10
135.688484
 20
202.993925
 30
0.0
 11
135.688484
 21
188.96621
 31
0.0
  0
LINE
  5
49D
330
70
100
AcDbEntity
  8
Visible
100
AcDbLine
 10
121.660768
 20
202.993925
 30
0.0
 11
135.688484
 21
202.993925
 31
0.0
  0
LINE
  5
49E
330
70
100
AcDbEntity
  8
Visible
100
AcDbLine
 10
121.661113
 20
183.878303
 30
0.0
 11
135.688829
 21
183.878303
 31
0.0
  0
LINE
  5
49F
330
70
100
AcDbEntity
  8
Visible
100
AcDbLine
 10
121.661113
 20
169.850587
 30
0.0
 11
121.661113
 21
183.878303
 31
0.0
  0
LINE
  5
4A0
330
70
100
AcDbEntity
  8
Visible
100
AcDbLine
 10
135.688829
 20
169.850587
 30
0.0
 11
121.661113
 21
169.850587
 31
0.0
  0
LINE
  5
4A1
330
70
100
AcDbEntity
  8
Visible
100
AcDbLine
 10
135.688829
 20
183.878303
 30
0.0
 11
135.688829
 21
169.850587
 31
0.0
  0
LINE
  5
4A2
330
70
100
AcDbEntity
  8
Visible
100
AcDbLine
 10
173.84968
 20
236.243196
 30
0.0
 11
173.84968
 21
222.21548
 31
0.0
  0
LINE
  5
4A3
330
70
100
AcDbEntity
  8
Visible
100
AcDbLine
 10
159.821965
 20
236.243196
 30
0.0
 11
173.84968
 21
236.243196
 31
0.0
  0
LINE
  5
4A4
330
70
100
AcDbEntity
  8
Visible
100
AcDbLine
 10
159.821965
 20
222.21548
 30
0.0
 11
159.821965
 21
236.243196
 31
0.0
  0
LINE
  5
4A5
330
70
100
AcDbEntity
  8
Visible
100
AcDbLine
 10
173.84968
 20
222.21548
 30
0.0
 11
159.821965
 21
222.21548
 31
0.0
  0
LINE
  5
4A6
330
70
100
AcDbEntity
  8
Visible
100
AcDbLine
 10
38.095914
 20
150.699424
 30
0.0
 11
50.25099
 21
157.695511
 31
0.0
  0
LINE
  5
4A7
330
70
100
AcDbEntity
  8
Visible
100
AcDbLine
 10
45.092001
 20
138.544348
 30
0.0
 11
38.095914
 21
150.699424
 31
0.0
  0
LINE
  5
4A8
330
70
100
AcDbEntity
  8
Visible
100
AcDbLine
 10
57.247078
 20
145.540435
 30
0.0
 11
45.092001
 21
138.544348
 31
0.0
  0
LINE
  5
4A9
330
70
100
AcDbEntity
  8
Visible
100
AcDbLine
 10
50.25099
 20
157.695511
 30
0.0
 11
57.247078
 21
145.540435
 31
0.0
  0
LINE
  5
4AA
330
70
100
AcDbEntity
  8
Visible
100
AcDbLine
 10
64.455031
 20
224.618477
 30
0.0
 11
64.455031
 21
238.646192
 31
0.0
  0
LINE
  5
4AB
330
70
100
AcDbEntity
  8
Visible
100
AcDbLine
 10
78.482747
 20
224.618477
 30
0.0
 11
64.455031
 21
224.618477
 31
0.0
  0
LINE
  5
4AC
330
70
100
AcDbEntity
  8
Visible
100
AcDbLine
 10
78.482747
 20
238.646192
 30
0.0
 11
78.482747
 21
224.618477
 31
0.0
  0
LINE
  5
4AD
330
70
100
AcDbEntity
  8
Visible
100
AcDbLine
 10
64.455031
 20
238.646192
 30
0.0
 11
78.482747
 21
238.646192
 31
0.0
  0
SPLINE
  5
4AE
330
70
100
AcDbEntity
  8
Visible
100
AcDbSpline
210
0.0
220
0.0
230
1.0
 70
    12
 71
     3
 72
     8
 73
     4
 74
     0
 42
0.000000001
 43
0.0000000001
 40
-1.0
 40
-1.0
 40
-1.0
 40
-1.0
 40
0.0
 40
0.0
 40
0.0
 40
0.0
 10
184.1372249152682
 20
227.5757699696805
 30
0.0
 41
1.0
 10
184.1372249152682
 20
226.1270715022238
 30
0.0
 41
1.0
 10
182.9712031988037
 20
224.9610443941983
 30
0.0
 41
1.0
 10
181.5225020355665
 20
224.9610443941983
 30
0.0
 41
1.0
  0
SPLINE
  5
4AF
330
70
100
AcDbEntity
  8
Visible
100
AcDbSpline
210
0.0
220
0.0
230
1.0
 70
    12
 71
     3
 72
     8
 73
     4
 74
     0
 42
0.000000001
 43
0.0000000001
 40
-1.0
 40
-1.0
 40
-1.0
 40
-1.0
 40
0.0
 40
0.0
 40
0.0
 40
0.0
 10
181.5225020355665
 20
230.190495545161
 30
0.0
 41
1.0
 10
182.9712031988037
 20
230.190495545161
 30
0.0
 41
1.0
 10
184.1372249152682
 20
229.0244684371373
 30
0.0
 41
1.0
 10
184.1372249152682
 20
227.5757699696805
 30
0.0
 41
1.0
  0
SPLINE
  5
4B0
330
70
100
AcDbEntity
  8
Visible
100
AcDbSpline
210
0.0
220
0.0
230
1.0
 70
    12
 71
     3
 72
     8
 73
     4
 74
     0
 42
0.000000001
 43
0.0000000001
 40
-1.0
 40
-1.0
 40
-1.0
 40
-1.0
 40
0.0
 40
0.0
 40
0.0
 40
0.0
 10
178.9077791558647
 20
227.5757699696805
 30
0.0
 41
1.0
 10
178.9077791558647
 20
229.0244684371373
 30
0.0
 41
1.0
 10
180.073800872331
 20
230.190495545161
 30
0.0
 41
1.0
 10
181.5225020355665
 20
230.190495545161
 30
0.0
 41
1.0
  0
SPLINE
  5
4B1
330
70
100
AcDbEntity
  8
Visible
100
AcDbSpline
210
0.0
220
0.0
230
1.0
 70
    12
 71
     3
 72
     8
 73
     4
 74
     0
 42
0.000000001
 43
0.0000000001
 40
-1.0
 40
-1.0
 40
-1.0
 40
-1.0
 40
0.0
 40
0.0
 40
0.0
 40
0.0
 10
181.5225020355665
 20
224.9610443941983
 30
0.0
 41
1.0
 10
180.073800872331
 20
224.9610443941983
 30
0.0
 41
1.0
 10
178.9077791558647
 20
226.1270715022238
 30
0.0
 41
1.0
 10
178.9077791558647
 20
227.5757699696805
 30
0.0
 41
1.0
  0
LINE
  5
4B2
330
70
100
AcDbEntity
  8
Visible
100
AcDbLine
 10
64.455031
 20
186.457625
 30
0.0
 11
64.455031
 21
200.48534
 31
0.0
  0
LINE
  5
4B3
330
70
100
AcDbEntity
  8
Visible
100
AcDbLine
 10
78.482747
 20
186.457625
 30
0.0
 11
64.455031
 21
186.457625
 31
0.0
  0
LINE
  5
4B4
330
70
100
AcDbEntity
  8
Visible
100
AcDbLine
 10
78.482747
 20
200.48534
 30
0.0
 11
78.482747
 21
186.457625
 31
0.0
  0
LINE
  5
4B5
330
70
100
AcDbEntity
  8
Visible
100
AcDbLine
 10
64.455031
 20
200.48534
 30
0.0
 11
78.482747
 21
200.48534
 31
0.0
  0
SPLINE
  5
4B6
330
70
100
AcDbEntity
  8
Visible
100
AcDbSpline
210
0.0
220
0.0
230
1.0
 70
     8
 71
     2
 72
     6
 73
     3
 74
     0
 42
0.000000001
 43
0.0000000001
 40
-1.0
 40
-1.0
 40
-1.0
 40
0.0
 40
0.0
 40
0.0
 10
33.11320052970586
 20
155.135907656926
 30
0.0
 10
32.54764754003372
 20
154.2166683863434
 30
0.0
 10
33.14770650833088
 20
153.0144800910311
 30
0.0
  0
LINE
  5
4B7
330
70
100
AcDbEntity
  8
Visible
100
AcDbLine
 10
38.908135
 20
165.912815
 30
0.0
 11
33.113201
 21
155.135908
 31
0.0
  0
SPLINE
  5
4B8
330
70
100
AcDbEntity
  8
Visible
100
AcDbSpline
210
0.0
220
0.0
230
1.0
 70
    12
 71
     3
 72
     8
 73
     4
 74
     0
 42
0.000000001
 43
0.0000000001
 40
-1.0
 40
-1.0
 40
-1.0
 40
-1.0
 40
0.0
 40
0.0
 40
0.0
 40
0.0
 10
39.19073854501221
 20
167.1495091751767
 30
0.0
 41
1.0
 10
39.19073854501221
 20
166.7257757576553
 30
0.0
 41
1.0
 10
39.08480519063232
 20
166.2661561223631
 30
0.0
 41
1.0
 10
38.9081345800696
 20
165.9128149012395
 30
0.0
 41
1.0
  0
LINE
  5
4B9
330
70
100
AcDbEntity
  8
Visible
100
AcDbLine
 10
39.225935
 20
184.216166
 30
0.0
 11
39.190739
 21
167.149509
 31
0.0
  0
SPLINE
  5
4BA
330
70
100
AcDbEntity
  8
Visible
100
AcDbSpline
210
0.0
220
0.0
230
1.0
 70
    12
 71
     3
 72
     8
 73
     4
 74
     0
 42
0.000000001
 43
0.0000000001
 40
-1.0
 40
-1.0
 40
-1.0
 40
-1.0
 40
0.0
 40
0.0
 40
0.0
 40
0.0
 10
40.21522105040276
 20
185.2057976703217
 30
0.0
 41
1.0
 10
39.68520921871641
 20
185.2057976703217
 30
0.0
 41
1.0
 10
39.22593464321108
 20
184.7820642528004
 30
0.0
 41
1.0
 10
39.22593464321108
 20
184.2161662033431
 30
0.0
 41
1.0
  0
LINE
  5
4BB
330
70
100
AcDbEntity
  8
Visible
100
AcDbLine
 10
60.95642
 20
185.205798
 30
0.0
 11
40.215221
 21
185.205798
 31
0.0
  0
SPLINE
  5
4BC
330
70
100
AcDbEntity
  8
Visible
100
AcDbSpline
210
0.0
220
0.0
230
1.0
 70
    12
 71
     3
 72
     8
 73
     4
 74
     0
 42
0.000000001
 43
0.0000000001
 40
-1.0
 40
-1.0
 40
-1.0
 40
-1.0
 40
0.0
 40
0.0
 40
0.0
 40
0.0
 10
61.66310218464786
 20
185.4887466950513
 30
0.0
 41
1.0
 10
61.48643157408514
 20
185.3120760844886
 30
0.0
 41
1.0
 10
61.2390237073414
 20
185.2057976703217
 30
0.0
 41
1.0
 10
60.95641974239879
 20
185.2057976703217
 30
0.0
 41
1.0
  0
SPLINE
  5
4BD
330
70
100
AcDbEntity
  8
Visible
100
AcDbSpline
210
0.0
220
0.0
230
1.0
 70
    12
 71
     3
 72
     8
 73
     4
 74
     0
 42
0.000000001
 43
0.0000000001
 40
-1.0
 40
-1.0
 40
-1.0
 40
-1.0
 40
0.0
 40
0.0
 40
0.0
 40
0.0
 10
61.94570614959047
 20
186.1954291373004
 30
0.0
 41
1.0
 10
61.94570614959047
 20
185.9483663303417
 30
0.0
 41
1.0
 10
61.83977279521059
 20
185.665417305614
 30
0.0
 41
1.0
 10
61.66310218464786
 20
185.4887466950513
 30
0.0
 41
1.0
  0
LINE
  5
4BE
330
70
100
AcDbEntity
  8
Visible
100
AcDbLine
 10
61.945706
 20
244.037111
 30
0.0
 11
61.945706
 21
186.195429
 31
0.0
  0
SPLINE
  5
4BF
330
70
100
AcDbEntity
  8
Visible
100
AcDbSpline
210
0.0
220
0.0
230
1.0
 70
    12
 71
     3
 72
     8
 73
     4
 74
     0
 42
0.000000001
 43
0.0000000001
 40
-1.0
 40
-1.0
 40
-1.0
 40
-1.0
 40
0.0
 40
0.0
 40
0.0
 40
0.0
 10
63.35907103409045
 20
245.1675268474064
 30
0.0
 41
1.0
 10
62.75832194622125
 20
245.1330208687796
 30
0.0
 41
1.0
 10
61.91051005139343
 20
245.2034130651755
 30
0.0
 41
1.0
 10
61.94570614959047
 20
244.0371109876342
 30
0.0
 41
1.0
  0
LINE
  5
4C0
330
70
100
AcDbEntity
  8
Visible
100
AcDbLine
 10
64.136491
 20
245.237919
 30
0.0
 11
63.359071
 21
245.167527
 31
0.0
  0
SPLINE
  5
4C1
330
70
100
AcDbEntity
  8
Visible
100
AcDbSpline
210
0.0
220
0.0
230
1.0
 70
    12
 71
     3
 72
     8
 73
     4
 74
     0
 42
0.000000001
 43
0.0000000001
 40
-1.0
 40
-1.0
 40
-1.0
 40
-1.0
 40
0.0
 40
0.0
 40
0.0
 40
0.0
 10
66.99841659972117
 20
248.3821038161568
 30
0.0
 41
1.0
 10
67.10469501388797
 20
246.7216761246982
 30
0.0
 41
1.0
 10
65.79726348376789
 20
245.3083112401982
 30
0.0
 41
1.0
 10
64.13649073252236
 20
245.2379190438023
 30
0.0
 41
1.0
  0
LINE
  5
4C2
330
70
100
AcDbEntity
  8
Visible
100
AcDbLine
 10
66.892483
 20
250.255088
 30
0.0
 11
66.998417
 21
248.382104
 31
0.0
  0
SPLINE
  5
4C3
330
70
100
AcDbEntity
  8
Visible
100
AcDbSpline
210
0.0
220
0.0
230
1.0
 70
    12
 71
     3
 72
     8
 73
     4
 74
     0
 42
0.000000001
 43
0.0000000001
 40
-1.0
 40
-1.0
 40
-1.0
 40
-1.0
 40
0.0
 40
0.0
 40
0.0
 40
0.0
 10
71.66258973052754
 20
255.4848144564275
 30
0.0
 41
1.0
 10
68.90659721771044
 20
255.3426498244899
 30
0.0
 41
1.0
 10
66.78654989095957
 20
253.0114259085512
 30
0.0
 41
1.0
 10
66.89248324534128
 20
250.2550883359472
 30
0.0
 41
1.0
  0
SPLINE
  5
4C4
330
70
100
AcDbEntity
  8
Visible
100
AcDbSpline
210
0.0
220
0.0
230
1.0
 70
    12
 71
     3
 72
     8
 73
     4
 74
     0
 42
0.000000001
 43
0.0000000001
 40
-1.0
 40
-1.0
 40
-1.0
 40
-1.0
 40
0.0
 40
0.0
 40
0.0
 40
0.0
 10
76.89197079122095
 20
250.7147079712395
 30
0.0
 41
1.0
 10
76.75084133864221
 20
253.4710455438435
 30
0.0
 41
1.0
 10
74.41858224334646
 20
255.5910928705925
 30
0.0
 41
1.0
 10
71.66258973052754
 20
255.4848144564275
 30
0.0
 41
1.0
  0
LINE
  5
4C5
330
70
100
AcDbEntity
  8
Visible
100
AcDbLine
 10
76.997904
 20
248.807217
 30
0.0
 11
76.891971
 21
250.714708
 31
0.0
  0
SPLINE
  5
4C6
330
70
100
AcDbEntity
  8
Visible
100
AcDbSpline
210
0.0
220
0.0
230
1.0
 70
    12
 71
     3
 72
     8
 73
     4
 74
     0
 42
0.000000001
 43
0.0000000001
 40
-1.0
 40
-1.0
 40
-1.0
 40
-1.0
 40
0.0
 40
0.0
 40
0.0
 40
0.0
 10
80.10723787954338
 20
245.9446014860514
 30
0.0
 41
1.0
 10
78.48200628628365
 20
245.8742092896555
 30
0.0
 41
1.0
 10
77.06864140178367
 20
247.1467897813636
 30
0.0
 41
1.0
 10
76.99790414560084
 20
248.8072174728222
 30
0.0
 41
1.0
  0
LINE
  5
4C7
330
70
100
AcDbEntity
  8
Visible
100
AcDbLine
 10
81.662077
 20
245.944601
 30
0.0
 11
80.107238
 21
245.944601
 31
0.0
  0
LINE
  5
4C8
330
70
100
AcDbEntity
  8
Visible
100
AcDbLine
 10
99.965429
 20
246.651284
 30
0.0
 11
81.662077
 21
245.944601
 31
0.0
  0
LINE
  5
4C9
330
70
100
AcDbEntity
  8
Visible
100
AcDbLine
 10
121.943322
 20
246.651284
 30
0.0
 11
99.965429
 21
246.651284
 31
0.0
  0
LINE
  5
4CA
330
70
100
AcDbEntity
  8
Visible
100
AcDbLine
 10
175.545254
 20
238.206981
 30
0.0
 11
121.943322
 21
246.651284
 31
0.0
  0
SPLINE
  5
4CB
330
70
100
AcDbEntity
  8
Visible
100
AcDbSpline
210
0.0
220
0.0
230
1.0
 70
    12
 71
     3
 72
     8
 73
     4
 74
     0
 42
0.000000001
 43
0.0000000001
 40
-1.0
 40
-1.0
 40
-1.0
 40
-1.0
 40
0.0
 40
0.0
 40
0.0
 40
0.0
 10
176.4993441100596
 20
237.0765649793011
 30
0.0
 41
1.0
 10
176.4993441100596
 20
237.5002983968225
 30
0.0
 41
1.0
 10
176.5345402082584
 20
238.0303102285107
 30
0.0
 41
1.0
 10
175.545253801065
 20
238.2069808390716
 30
0.0
 41
1.0
  0
LINE
  5
4CC
330
70
100
AcDbEntity
  8
Visible
100
AcDbLine
 10
176.53454
 20
235.592808
 30
0.0
 11
176.499344
 21
237.076565
 31
0.0
  0
SPLINE
  5
4CD
330
70
100
AcDbEntity
  8
Visible
100
AcDbSpline
210
0.0
220
0.0
230
1.0
 70
    12
 71
     3
 72
     8
 73
     4
 74
     0
 42
0.000000001
 43
0.0000000001
 40
-1.0
 40
-1.0
 40
-1.0
 40
-1.0
 40
0.0
 40
0.0
 40
0.0
 40
0.0
 10
179.5379405878211
 20
232.5894075188426
 30
0.0
 41
1.0
 10
177.8771678365756
 20
232.5894075188426
 30
0.0
 41
1.0
 10
176.5345402082584
 20
233.9323802069466
 30
0.0
 41
1.0
 10
176.5345402082584
 20
235.5928078984052
 30
0.0
 41
1.0
  0
LINE
  5
4CE
330
70
100
AcDbEntity
  8
Visible
100
AcDbLine
 10
181.41058
 20
232.589408
 30
0.0
 11
179.537941
 21
232.589408
 31
0.0
  0
SPLINE
  5
4CF
330
70
100
AcDbEntity
  8
Visible
100
AcDbSpline
210
0.0
220
0.0
230
1.0
 70
    12
 71
     3
 72
     8
 73
     4
 74
     0
 42
0.000000001
 43
0.0000000001
 40
-1.0
 40
-1.0
 40
-1.0
 40
-1.0
 40
0.0
 40
0.0
 40
0.0
 40
0.0
 10
186.4280943997582
 20
227.5722382266958
 30
0.0
 41
1.0
 10
186.4280943997582
 20
230.3630817779267
 30
0.0
 41
1.0
 10
184.1665725606435
 20
232.5894075188426
 30
0.0
 41
1.0
 10
181.4105800478264
 20
232.5894075188426
 30
0.0
 41
1.0
  0
SPLINE
  5
4D0
330
70
100
AcDbEntity
  8
Visible
100
AcDbSpline
210
0.0
220
0.0
230
1.0
 70
    12
 71
     3
 72
     8
 73
     4
 74
     0
 42
0.000000001
 43
0.0000000001
 40
-1.0
 40
-1.0
 40
-1.0
 40
-1.0
 40
0.0
 40
0.0
 40
0.0
 40
0.0
 10
181.4105800478264
 20
222.555068934551
 30
0.0
 41
1.0
 10
184.2021137186275
 20
222.555068934551
 30
0.0
 41
1.0
 10
186.4280943997582
 20
224.8159006540918
 30
0.0
 41
1.0
 10
186.4280943997582
 20
227.5722382266958
 30
0.0
 41
1.0
  0
LINE
  5
4D1
330
70
100
AcDbEntity
  8
Visible
100
AcDbLine
 10
179.502399
 20
222.555069
 30
0.0
 11
181.41058
 21
222.555069
 31
0.0
  0
SPLINE
  5
4D2
330
70
100
AcDbEntity
  8
Visible
100
AcDbSpline
210
0.0
220
0.0
230
1.0
 70
    12
 71
     3
 72
     8
 73
     4
 74
     0
 42
0.000000001
 43
0.0000000001
 40
-1.0
 40
-1.0
 40
-1.0
 40
-1.0
 40
0.0
 40
0.0
 40
0.0
 40
0.0
 10
176.5341951484715
 20
219.5516685549883
 30
0.0
 41
1.0
 10
176.5341951484715
 20
221.2120962464469
 30
0.0
 41
1.0
 10
177.8416266785916
 20
222.555068934551
 30
0.0
 41
1.0
 10
179.5023994298371
 20
222.555068934551
 30
0.0
 41
1.0
  0
LINE
  5
4D3
330
70
100
AcDbEntity
  8
Visible
100
AcDbLine
 10
176.534195
 20
180.71726
 30
0.0
 11
176.534195
 21
219.551669
 31
0.0
  0
LINE
  5
4D4
330
70
100
AcDbEntity
  8
Visible
100
AcDbLine
 10
176.569391
 20
180.08097
 30
0.0
 11
176.534195
 21
180.71726
 31
0.0
  0
SPLINE
  5
4D5
330
70
100
AcDbEntity
  8
Visible
100
AcDbSpline
210
0.0
220
0.0
230
1.0
 70
    12
 71
     3
 72
     8
 73
     4
 74
     0
 42
0.000000001
 43
0.0000000001
 40
-1.0
 40
-1.0
 40
-1.0
 40
-1.0
 40
0.0
 40
0.0
 40
0.0
 40
0.0
 10
179.5727916262331
 20
177.0775693453015
 30
0.0
 41
1.0
 10
177.9120188749875
 20
177.0775693453015
 30
0.0
 41
1.0
 10
176.5693912466704
 20
178.4205420334056
 30
0.0
 41
1.0
 10
176.5693912466704
 20
180.0809697248642
 30
0.0
 41
1.0
  0
LINE
  5
4D6
330
70
100
AcDbEntity
  8
Visible
100
AcDbLine
 10
181.445431
 20
177.077569
 30
0.0
 11
179.572792
 21
177.077569
 31
0.0
  0
SPLINE
  5
4D7
330
70
100
AcDbEntity
  8
Visible
100
AcDbSpline
210
0.0
220
0.0
230
1.0
 70
    12
 71
     3
 72
     8
 73
     4
 74
     0
 42
0.000000001
 43
0.0000000001
 40
-1.0
 40
-1.0
 40
-1.0
 40
-1.0
 40
0.0
 40
0.0
 40
0.0
 40
0.0
 10
186.4629454381702
 20
172.0604000531566
 30
0.0
 41
1.0
 10
186.4629454381702
 20
174.8512436043857
 30
0.0
 41
1.0
 10
184.2014235990555
 20
177.0775693453015
 30
0.0
 41
1.0
 10
181.4454310862384
 20
177.0775693453015
 30
0.0
 41
1.0
  0
SPLINE
  5
4D8
330
70
100
AcDbEntity
  8
Visible
100
AcDbSpline
210
0.0
220
0.0
230
1.0
 70
    12
 71
     3
 72
     8
 73
     4
 74
     0
 42
0.000000001
 43
0.0000000001
 40
-1.0
 40
-1.0
 40
-1.0
 40
-1.0
 40
0.0
 40
0.0
 40
0.0
 40
0.0
 10
181.4454310862384
 20
167.0432307610099
 30
0.0
 41
1.0
 10
184.2369647570394
 20
167.0432307610099
 30
0.0
 41
1.0
 10
186.4629454381702
 20
169.3040624805526
 30
0.0
 41
1.0
 10
186.4629454381702
 20
172.0604000531566
 30
0.0
 41
1.0
  0
LINE
  5
4D9
330
70
100
AcDbEntity
  8
Visible
100
AcDbLine
 10
179.53725
 20
167.043231
 30
0.0
 11
181.445431
 21
167.043231
 31
0.0
  0
SPLINE
  5
4DA
330
70
100
AcDbEntity
  8
Visible
100
AcDbSpline
210
0.0
220
0.0
230
1.0
 70
    12
 71
     3
 72
     8
 73
     4
 74
     0
 42
0.000000001
 43
0.0000000001
 40
-1.0
 40
-1.0
 40
-1.0
 40
-1.0
 40
0.0
 40
0.0
 40
0.0
 40
0.0
 10
176.5690461868835
 20
164.0398303814472
 30
0.0
 41
1.0
 10
176.5690461868835
 20
165.7002580729058
 30
0.0
 41
1.0
 10
177.8764777170036
 20
167.0432307610099
 30
0.0
 41
1.0
 10
179.5372504682473
 20
167.0432307610099
 30
0.0
 41
1.0
  0
LINE
  5
4DB
330
70
100
AcDbEntity
  8
Visible
100
AcDbLine
 10
176.569046
 20
161.919783
 30
0.0
 11
176.569046
 21
164.03983
 31
0.0
  0
LINE
  5
4DC
330
70
100
AcDbEntity
  8
Visible
100
AcDbLine
 10
138.549669
 20
147.396907
 30
0.0
 11
176.569046
 21
161.919783
 31
0.0
  0
LINE
  5
4DD
330
70
100
AcDbEntity
  8
Visible
100
AcDbLine
 10
89.117094
 20
147.396907
 30
0.0
 11
138.549669
 21
147.396907
 31
0.0
  0
LINE
  5
4DE
330
70
100
AcDbEntity
  8
Visible
100
AcDbLine
 10
44.807967
 20
134.640737
 30
0.0
 11
89.117094
 21
147.396907
 31
0.0
  0
SPLINE
  5
4DF
330
70
100
AcDbEntity
  8
Visible
100
AcDbSpline
210
0.0
220
0.0
230
1.0
 70
    12
 71
     3
 72
     8
 73
     4
 74
     0
 42
0.000000001
 43
0.0000000001
 40
-1.0
 40
-1.0
 40
-1.0
 40
-1.0
 40
0.0
 40
0.0
 40
0.0
 40
0.0
 10
43.500535275336
 20
135.1003562278219
 30
0.0
 41
1.0
 10
44.06608826500814
 20
134.357787567802
 30
0.0
 41
1.0
 10
44.63129619489336
 20
134.6048503747606
 30
0.0
 41
1.0
 10
44.80796680545608
 20
134.6407365925315
 30
0.0
 41
1.0
  0
LINE
  5
4E0
330
70
100
AcDbEntity
  8
Visible
100
AcDbLine
 10
42.157908
 20
137.397074
 30
0.0
 11
43.500535
 21
135.100356
 31
0.0
  0
SPLINE
  5
4E1
330
70
100
AcDbEntity
  8
Visible
100
AcDbSpline
210
0.0
220
0.0
230
1.0
 70
    12
 71
     3
 72
     8
 73
     4
 74
     0
 42
0.000000001
 43
0.0000000001
 40
-1.0
 40
-1.0
 40
-1.0
 40
-1.0
 40
0.0
 40
0.0
 40
0.0
 40
0.0
 10
38.02374634789885
 20
138.492984046281
 30
0.0
 41
1.0
 10
39.47265239038279
 20
139.3404508813219
 30
0.0
 41
1.0
 10
41.34529185038809
 20
138.8463252674064
 30
0.0
 41
1.0
 10
42.15790764701887
 20
137.3970741651355
 30
0.0
 41
1.0
  0
LINE
  5
4E2
330
70
100
AcDbEntity
  8
Visible
100
AcDbLine
 10
36.398515
 20
137.539239
 30
0.0
 11
38.023746
 21
138.492984
 31
0.0
  0
SPLINE
  5
4E3
330
70
100
AcDbEntity
  8
Visible
100
AcDbSpline
210
0.0
220
0.0
230
1.0
 70
    12
 71
     3
 72
     8
 73
     4
 74
     0
 42
0.000000001
 43
0.0000000001
 40
-1.0
 40
-1.0
 40
-1.0
 40
-1.0
 40
0.0
 40
0.0
 40
0.0
 40
0.0
 10
29.54355704089903
 20
139.3763370990928
 30
0.0
 41
1.0
 10
30.956921925399
 20
136.9733407476142
 30
0.0
 41
1.0
 10
33.99586346294564
 20
136.1617601303424
 30
0.0
 41
1.0
 10
36.39851475463729
 20
137.5392387970714
 30
0.0
 41
1.0
  0
SPLINE
  5
4E4
330
70
100
AcDbEntity
  8
Visible
100
AcDbSpline
210
0.0
220
0.0
230
1.0
 70
    12
 71
     3
 72
     8
 73
     4
 74
     0
 42
0.000000001
 43
0.0000000001
 40
-1.0
 40
-1.0
 40
-1.0
 40
-1.0
 40
0.0
 40
0.0
 40
0.0
 40
0.0
 10
31.38100040270547
 20
146.2306046932608
 30
0.0
 41
1.0
 10
28.97834911101199
 20
144.8172398087608
 30
0.0
 41
1.0
 10
28.16538825459611
 20
141.7793334505713
 30
0.0
 41
1.0
 10
29.54355704089903
 20
139.3763370990928
 30
0.0
 41
1.0
  0
LINE
  5
4E5
330
70
100
AcDbEntity
  8
Visible
100
AcDbLine
 10
33.041773
 20
147.18435
 30
0.0
 11
31.381
 21
146.230605
 31
0.0
  0
SPLINE
  5
4E6
330
70
100
AcDbEntity
  8
Visible
100
AcDbSpline
210
0.0
220
0.0
230
1.0
 70
    12
 71
     3
 72
     8
 73
     4
 74
     0
 42
0.000000001
 43
0.0000000001
 40
-1.0
 40
-1.0
 40
-1.0
 40
-1.0
 40
0.0
 40
0.0
 40
0.0
 40
0.0
 10
34.13699291552257
 20
151.2836602031766
 30
0.0
 41
1.0
 10
34.94995377194027
 20
149.8344091009057
 30
0.0
 41
1.0
 10
34.45513803845097
 20
148.0318167775112
 30
0.0
 41
1.0
 10
33.041773153951
 20
147.1843499424685
 30
0.0
 41
1.0
  0
LINE
  5
4E7
330
70
100
AcDbEntity
  8
Visible
100
AcDbLine
 10
33.147707
 20
153.01448
 30
0.0
 11
34.136993
 21
151.28366
 31
0.0
  0
SPLINE
  5
4E8
330
70
100
AcDbEntity
  8
Visible
100
AcDbSpline
210
0.0
220
0.0
230
1.0
 70
    12
 71
     3
 72
     8
 73
     4
 74
     0
 42
0.000000001
 43
0.0000000001
 40
0.0
 40
0.0
 40
0.0
 40
0.0
 40
1.0
 40
1.0
 40
1.0
 40
1.0
 10
116.4370555742134
 20
250.8962898899845
 30
0.0
 41
1.0
 10
115.0590269684489
 20
250.931624146886
 30
0.0
 41
1.0
 10
113.8929998604235
 20
252.0976499070221
 30
0.0
 41
1.0
 10
113.857663581688
 20
253.4756812085652
 30
0.0
 41
1.0
  0
SPLINE
  5
4E9
330
70
100
AcDbEntity
  8
Visible
100
AcDbSpline
210
0.0
220
0.0
230
1.0
 70
    12
 71
     3
 72
     8
 73
     4
 74
     0
 42
0.000000001
 43
0.0000000001
 40
0.0
 40
0.0
 40
0.0
 40
0.0
 40
1.0
 40
1.0
 40
1.0
 40
1.0
 10
119.0871147326506
 20
253.511014791522
 30
0.0
 41
1.0
 10
119.0871147326506
 20
252.0623156501206
 30
0.0
 41
1.0
 10
117.8857567374489
 20
250.8962898899845
 30
0.0
 41
1.0
 10
116.4370555742134
 20
250.8962898899845
 30
0.0
 41
1.0
  0
SPLINE
  5
4EA
330
70
100
AcDbEntity
  8
Visible
100
AcDbSpline
210
0.0
220
0.0
230
1.0
 70
    12
 71
     3
 72
     8
 73
     4
 74
     0
 42
0.000000001
 43
0.0000000001
 40
0.0
 40
0.0
 40
0.0
 40
0.0
 40
1.0
 40
1.0
 40
1.0
 40
1.0
 10
116.4723864613897
 20
256.1257403670024
 30
0.0
 41
1.0
 10
117.921082233066
 20
256.1257400300292
 30
0.0
 41
1.0
 10
119.0871147326506
 20
254.9597139329235
 30
0.0
 41
1.0
 10
119.0871147326506
 20
253.511014791522
 30
0.0
 41
1.0
  0
SPLINE
  5
4EB
330
70
100
AcDbEntity
  8
Visible
100
AcDbSpline
210
0.0
220
0.0
230
1.0
 70
    12
 71
     3
 72
     8
 73
     4
 74
     0
 42
0.000000001
 43
0.0000000001
 40
0.0
 40
0.0
 40
0.0
 40
0.0
 40
1.0
 40
1.0
 40
1.0
 40
1.0
 10
113.857663581688
 20
253.4756812085652
 30
0.0
 41
1.0
 10
113.8223273029525
 20
254.9243803499667
 30
0.0
 41
1.0
 10
115.0236906897116
 20
256.1257403670024
 30
0.0
 41
1.0
 10
116.4723864613897
 20
256.1257403670024
 30
0.0
 41
1.0
  0
SPLINE
  5
4EC
330
70
100
AcDbEntity
  8
Visible
100
AcDbSpline
210
0.0
220
0.0
230
1.0
 70
    12
 71
     3
 72
     8
 73
     4
 74
     0
 42
0.000000001
 43
0.0000000001
 40
0.0
 40
0.0
 40
0.0
 40
0.0
 40
1.0
 40
1.0
 40
1.0
 40
1.0
 10
122.1258513909488
 20
257.185764030377
 30
0.0
 41
1.0
 10
122.337858280247
 20
257.4684370746727
 30
0.0
 41
1.0
 10
122.1258513909488
 20
257.8217782957963
 30
0.0
 41
1.0
 10
121.8078464485606
 20
257.8217782957963
 30
0.0
 41
1.0
  0
SPLINE
  5
4ED
330
70
100
AcDbEntity
  8
Visible
100
AcDbSpline
210
0.0
220
0.0
230
1.0
 70
    12
 71
     3
 72
     8
 73
     4
 74
     0
 42
0.000000001
 43
0.0000000001
 40
0.0
 40
0.0
 40
0.0
 40
0.0
 40
1.0
 40
1.0
 40
1.0
 40
1.0
 10
121.5251670017897
 20
255.3837240048233
 30
0.0
 41
1.0
 10
121.5251670017897
 20
255.6310627922158
 30
0.0
 41
1.0
 10
121.5605032805251
 20
256.4084137482696
 30
0.0
 41
1.0
 10
122.1258513909488
 20
257.185764030377
 30
0.0
 41
1.0
  0
LINE
  5
4EE
330
70
100
AcDbEntity
  8
Visible
100
AcDbLine
 10
121.525167
 20
253.511015
 30
0.0
 11
121.525167
 21
255.383724
 31
0.0
  0
SPLINE
  5
4EF
330
70
100
AcDbEntity
  8
Visible
100
AcDbSpline
210
0.0
220
0.0
230
1.0
 70
    12
 71
     3
 72
     8
 73
     4
 74
     0
 42
0.000000001
 43
0.0000000001
 40
0.0
 40
0.0
 40
0.0
 40
0.0
 40
1.0
 40
1.0
 40
1.0
 40
1.0
 10
115.9423746297016
 20
248.5289041128144
 30
0.0
 41
1.0
 10
118.9457696177051
 20
248.2108964746458
 30
0.0
 41
1.0
 10
121.5251670017897
 20
250.5429493428055
 30
0.0
 41
1.0
 10
121.5251670017897
 20
253.5110154654667
 30
0.0
 41
1.0
  0
SPLINE
  5
4F0
330
70
100
AcDbEntity
  8
Visible
100
AcDbSpline
210
0.0
220
0.0
230
1.0
 70
    12
 71
     3
 72
     8
 73
     4
 74
     0
 42
0.000000001
 43
0.0000000001
 40
0.0
 40
0.0
 40
0.0
 40
0.0
 40
1.0
 40
1.0
 40
1.0
 40
1.0
 10
111.4902730869034
 20
253.6523518191279
 30
0.0
 41
1.0
 10
111.4902730869034
 20
251.0729611744919
 30
0.0
 41
1.0
 10
113.362982637178
 20
248.8115768201369
 30
0.0
 41
1.0
 10
115.9423746297016
 20
248.5289041128144
 30
0.0
 41
1.0
  0
LINE
  5
4F1
330
70
100
AcDbEntity
  8
Visible
100
AcDbLine
 10
111.490273
 20
255.419058
 30
0.0
 11
111.490273
 21
253.652352
 31
0.0
  0
SPLINE
  5
4F2
330
70
100
AcDbEntity
  8
Visible
100
AcDbSpline
210
0.0
220
0.0
230
1.0
 70
    12
 71
     3
 72
     8
 73
     4
 74
     0
 42
0.000000001
 43
0.0000000001
 40
0.0
 40
0.0
 40
0.0
 40
0.0
 40
1.0
 40
1.0
 40
1.0
 40
1.0
 10
111.3489387550762
 20
256.3024106405919
 30
0.0
 41
1.0
 10
111.4549421997271
 20
255.984403676368
 30
0.0
 41
1.0
 10
111.4902730869034
 20
255.6663963751725
 30
0.0
 41
1.0
 10
111.4902730869034
 20
255.4190575877801
 30
0.0
 41
1.0
  0
SPLINE
  5
4F3
330
70
100
AcDbEntity
  8
Visible
100
AcDbSpline
210
0.0
220
0.0
230
1.0
 70
    12
 71
     3
 72
     8
 73
     4
 74
     0
 42
0.000000001
 43
0.0000000001
 40
0.0
 40
0.0
 40
0.0
 40
0.0
 40
1.0
 40
1.0
 40
1.0
 40
1.0
 10
110.9602612552153
 20
257.0797612596725
 30
0.0
 41
1.0
 10
111.1015955870425
 20
256.8677563922083
 30
0.0
 41
1.0
 10
111.2429353104271
 20
256.5850836848877
 30
0.0
 41
1.0
 10
111.3489387550762
 20
256.3024106405919
 30
0.0
 41
1.0
  0
SPLINE
  5
4F4
330
70
100
AcDbEntity
  8
Visible
100
AcDbSpline
210
0.0
220
0.0
230
1.0
 70
    12
 71
     3
 72
     8
 73
     4
 74
     0
 42
0.000000001
 43
0.0000000001
 40
0.0
 40
0.0
 40
0.0
 40
0.0
 40
1.0
 40
1.0
 40
1.0
 40
1.0
 10
111.3842696422543
 20
257.8571120472389
 30
0.0
 41
1.0
 10
110.9955921423934
 20
257.8571120472389
 30
0.0
 41
1.0
 10
110.7482543659171
 20
257.3977685608697
 30
0.0
 41
1.0
 10
110.9602612552153
 20
257.0797612596725
 30
0.0
 41
1.0
  0
LINE
  5
4F5
330
70
100
AcDbEntity
  8
Visible
100
AcDbLine
 10
121.807846
 20
257.821778
 30
0.0
 11
111.38427
 21
257.857112
 31
0.0
  0
SPLINE
  5
4F6
330
70
100
AcDbEntity
  8
Visible
100
AcDbSpline
210
0.0
220
0.0
230
1.0
 70
    12
 71
     3
 72
     8
 73
     4
 74
     0
 42
0.000000001
 43
0.0000000001
 40
0.0
 40
0.0
 40
0.0
 40
0.0
 40
1.0
 40
1.0
 40
1.0
 40
1.0
 10
34.39121971573877
 20
248.2815649884487
 30
0.0
 41
1.0
 10
34.42655397264025
 20
249.6595956160472
 30
0.0
 41
1.0
 10
35.59257973277636
 20
250.825622050128
 30
0.0
 41
1.0
 10
36.97061036037485
 20
250.860955633083
 30
0.0
 41
1.0
  0
SPLINE
  5
4F7
330
70
100
AcDbEntity
  8
Visible
100
AcDbSpline
210
0.0
220
0.0
230
1.0
 70
    12
 71
     3
 72
     8
 73
     4
 74
     0
 42
0.000000001
 43
0.0000000001
 40
0.0
 40
0.0
 40
0.0
 40
0.0
 40
1.0
 40
1.0
 40
1.0
 40
1.0
 10
37.00594461727633
 20
245.6315058300115
 30
0.0
 41
1.0
 10
35.55724547587488
 20
245.6315058300115
 30
0.0
 41
1.0
 10
34.39121971573877
 20
246.832866520992
 30
0.0
 41
1.0
 10
34.39121971573877
 20
248.2815649884487
 30
0.0
 41
1.0
  0
SPLINE
  5
4F8
330
70
100
AcDbEntity
  8
Visible
100
AcDbSpline
210
0.0
220
0.0
230
1.0
 70
    12
 71
     3
 72
     8
 73
     4
 74
     0
 42
0.000000001
 43
0.0000000001
 40
0.0
 40
0.0
 40
0.0
 40
0.0
 40
1.0
 40
1.0
 40
1.0
 40
1.0
 10
39.62066951881207
 20
248.2462300576026
 30
0.0
 41
1.0
 10
39.58533593585526
 20
246.7975315901458
 30
0.0
 41
1.0
 10
38.4193095017763
 20
245.6315058300115
 30
0.0
 41
1.0
 10
37.00594461727633
 20
245.6315058300115
 30
0.0
 41
1.0
  0
SPLINE
  5
4F9
330
70
100
AcDbEntity
  8
Visible
100
AcDbSpline
210
0.0
220
0.0
230
1.0
 70
    12
 71
     3
 72
     8
 73
     4
 74
     0
 42
0.000000001
 43
0.0000000001
 40
0.0
 40
0.0
 40
0.0
 40
0.0
 40
1.0
 40
1.0
 40
1.0
 40
1.0
 10
36.97061036037485
 20
250.860955633083
 30
0.0
 41
1.0
 10
38.4193095017763
 20
250.8962898899845
 30
0.0
 41
1.0
 10
39.62066951881207
 20
249.6949298729487
 30
0.0
 41
1.0
 10
39.62066951881207
 20
248.2462300576026
 30
0.0
 41
1.0
  0
SPLINE
  5
4FA
330
70
100
AcDbEntity
  8
Visible
100
AcDbSpline
210
0.0
220
0.0
230
1.0
 70
    12
 71
     3
 72
     8
 73
     4
 74
     0
 42
0.000000001
 43
0.0000000001
 40
0.0
 40
0.0
 40
0.0
 40
0.0
 40
1.0
 40
1.0
 40
1.0
 40
1.0
 10
40.64535825134043
 20
242.6281054504489
 30
0.0
 41
1.0
 10
40.92803095866293
 20
242.4161012569293
 30
0.0
 41
1.0
 10
41.28137217978656
 20
242.6281054504489
 30
0.0
 41
1.0
 10
41.28137217978656
 20
242.9461130886175
 30
0.0
 41
1.0
  0
SPLINE
  5
4FB
330
70
100
AcDbEntity
  8
Visible
100
AcDbSpline
210
0.0
220
0.0
230
1.0
 70
    12
 71
     3
 72
     8
 73
     4
 74
     0
 42
0.000000001
 43
0.0000000001
 40
0.0
 40
0.0
 40
0.0
 40
0.0
 40
1.0
 40
1.0
 40
1.0
 40
1.0
 10
38.84331856275821
 20
243.22878579594
 30
0.0
 41
1.0
 10
39.0906576871239
 20
243.22878579594
 30
0.0
 41
1.0
 10
39.86800864317775
 20
243.1934522129832
 30
0.0
 41
1.0
 10
40.64535825134043
 20
242.6281054504489
 30
0.0
 41
1.0
  0
LINE
  5
4FC
330
70
100
AcDbEntity
  8
Visible
100
AcDbLine
 10
36.97061
 20
243.228786
 30
0.0
 11
38.843319
 21
243.228786
 31
0.0
  0
SPLINE
  5
4FD
330
70
100
AcDbEntity
  8
Visible
100
AcDbSpline
210
0.0
220
0.0
230
1.0
 70
    12
 71
     3
 72
     8
 73
     4
 74
     0
 42
0.000000001
 43
0.0000000001
 40
0.0
 40
0.0
 40
0.0
 40
0.0
 40
1.0
 40
1.0
 40
1.0
 40
1.0
 10
31.9884983337779
 20
248.8115768201369
 30
0.0
 41
1.0
 10
31.67049136955393
 20
245.8081764405743
 30
0.0
 41
1.0
 10
34.002543563769
 20
243.22878579594
 30
0.0
 41
1.0
 10
36.97060968643018
 20
243.22878579594
 30
0.0
 41
1.0
  0
SPLINE
  5
4FE
330
70
100
AcDbEntity
  8
Visible
100
AcDbSpline
210
0.0
220
0.0
230
1.0
 70
    12
 71
     3
 72
     8
 73
     4
 74
     0
 42
0.000000001
 43
0.0000000001
 40
0.0
 40
0.0
 40
0.0
 40
0.0
 40
1.0
 40
1.0
 40
1.0
 40
1.0
 10
37.11194604008961
 20
253.263676341101
 30
0.0
 41
1.0
 10
34.53255539545535
 20
253.263676341101
 30
0.0
 41
1.0
 10
32.27117137807181
 20
251.3909674647712
 30
0.0
 41
1.0
 10
31.9884983337779
 20
248.8115768201369
 30
0.0
 41
1.0
  0
LINE
  5
4FF
330
70
100
AcDbEntity
  8
Visible
100
AcDbLine
 10
38.878652
 20
253.263676
 30
0.0
 11
37.111946
 21
253.263676
 31
0.0
  0
SPLINE
  5
500
330
70
100
AcDbEntity
  8
Visible
100
AcDbSpline
210
0.0
220
0.0
230
1.0
 70
    12
 71
     3
 72
     8
 73
     4
 74
     0
 42
0.000000001
 43
0.0000000001
 40
0.0
 40
0.0
 40
0.0
 40
0.0
 40
1.0
 40
1.0
 40
1.0
 40
1.0
 10
39.76200519852864
 20
253.4050126947623
 30
0.0
 41
1.0
 10
39.44399756036001
 20
253.2990105980025
 30
0.0
 41
1.0
 10
39.1259912700807
 20
253.263676341101
 30
0.0
 41
1.0
 10
38.87865214571503
 20
253.263676341101
 30
0.0
 41
1.0
  0
SPLINE
  5
501
330
70
100
AcDbEntity
  8
Visible
100
AcDbSpline
210
0.0
220
0.0
230
1.0
 70
    12
 71
     3
 72
     8
 73
     4
 74
     0
 42
0.000000001
 43
0.0000000001
 40
0.0
 40
0.0
 40
0.0
 40
0.0
 40
1.0
 40
1.0
 40
1.0
 40
1.0
 10
40.53935615458067
 20
253.7936881727892
 30
0.0
 41
1.0
 10
40.32735196106114
 20
253.6523518191279
 30
0.0
 41
1.0
 10
40.04467790584931
 20
253.5110154654667
 30
0.0
 41
1.0
 10
39.76200519852864
 20
253.4050126947623
 30
0.0
 41
1.0
  0
SPLINE
  5
502
330
70
100
AcDbEntity
  8
Visible
100
AcDbSpline
210
0.0
220
0.0
230
1.0
 70
    12
 71
     3
 72
     8
 73
     4
 74
     0
 42
0.000000001
 43
0.0000000001
 40
0.0
 40
0.0
 40
0.0
 40
0.0
 40
1.0
 40
1.0
 40
1.0
 40
1.0
 10
41.31670711063452
 20
253.3696784378608
 30
0.0
 41
1.0
 10
41.31670711063452
 20
253.7583539158877
 30
0.0
 41
1.0
 10
40.85736379274931
 20
254.0056923663069
 30
0.0
 41
1.0
 10
40.53935615458067
 20
253.7936881727892
 30
0.0
 41
1.0
  0
LINE
  5
503
330
70
100
AcDbEntity
  8
Visible
100
AcDbLine
 10
41.281372
 20
242.946113
 30
0.0
 11
41.316707
 21
253.369678
 31
0.0
  0
SPLINE
  5
504
330
70
100
AcDbEntity
  8
Visible
100
AcDbSpline
210
0.0
220
0.0
230
1.0
 70
    12
 71
     3
 72
     8
 73
     4
 74
     0
 42
0.000000001
 43
0.0000000001
 40
0.0
 40
0.0
 40
0.0
 40
0.0
 40
1.0
 40
1.0
 40
1.0
 40
1.0
 10
34.39121971573877
 20
221.7809734040748
 30
0.0
 41
1.0
 10
34.42655397264025
 20
223.1590047056179
 30
0.0
 41
1.0
 10
35.59257973277636
 20
224.3250291178629
 30
0.0
 41
1.0
 10
36.97061036037485
 20
224.3603653965983
 30
0.0
 41
1.0
  0
SPLINE
  5
505
330
70
100
AcDbEntity
  8
Visible
100
AcDbSpline
210
0.0
220
0.0
230
1.0
 70
    12
 71
     3
 72
     8
 73
     4
 74
     0
 42
0.000000001
 43
0.0000000001
 40
0.0
 40
0.0
 40
0.0
 40
0.0
 40
1.0
 40
1.0
 40
1.0
 40
1.0
 10
37.00594461727633
 20
219.1309142456357
 30
0.0
 41
1.0
 10
35.55724547587488
 20
219.1309142456357
 30
0.0
 41
1.0
 10
34.39121971573877
 20
220.332274936618
 30
0.0
 41
1.0
 10
34.39121971573877
 20
221.7809734040748
 30
0.0
 41
1.0
  0
SPLINE
  5
506
330
70
100
AcDbEntity
  8
Visible
100
AcDbSpline
210
0.0
220
0.0
230
1.0
 70
    12
 71
     3
 72
     8
 73
     4
 74
     0
 42
0.000000001
 43
0.0000000001
 40
0.0
 40
0.0
 40
0.0
 40
0.0
 40
1.0
 40
1.0
 40
1.0
 40
1.0
 10
39.62066951881207
 20
221.7456398211179
 30
0.0
 41
1.0
 10
39.58533593585526
 20
220.2969413536612
 30
0.0
 41
1.0
 10
38.4193095017763
 20
219.1309142456357
 30
0.0
 41
1.0
 10
37.00594461727633
 20
219.1309142456357
 30
0.0
 41
1.0
  0
SPLINE
  5
507
330
70
100
AcDbEntity
  8
Visible
100
AcDbSpline
210
0.0
220
0.0
230
1.0
 70
    12
 71
     3
 72
     8
 73
     4
 74
     0
 42
0.000000001
 43
0.0000000001
 40
0.0
 40
0.0
 40
0.0
 40
0.0
 40
1.0
 40
1.0
 40
1.0
 40
1.0
 10
36.97061036037485
 20
224.3603653965983
 30
0.0
 41
1.0
 10
38.4193095017763
 20
224.3956989795552
 30
0.0
 41
1.0
 10
39.62066951881207
 20
223.1943382885747
 30
0.0
 41
1.0
 10
39.62066951881207
 20
221.7456398211179
 30
0.0
 41
1.0
  0
SPLINE
  5
508
330
70
100
AcDbEntity
  8
Visible
100
AcDbSpline
210
0.0
220
0.0
230
1.0
 70
    12
 71
     3
 72
     8
 73
     4
 74
     0
 42
0.000000001
 43
0.0000000001
 40
0.0
 40
0.0
 40
0.0
 40
0.0
 40
1.0
 40
1.0
 40
1.0
 40
1.0
 10
40.64535825134043
 20
216.0921802831181
 30
0.0
 41
1.0
 10
40.92803095866293
 20
215.8801760895985
 30
0.0
 41
1.0
 10
41.28137217978656
 20
216.0921802831181
 30
0.0
 41
1.0
 10
41.28137217978656
 20
216.4101879212867
 30
0.0
 41
1.0
  0
SPLINE
  5
509
330
70
100
AcDbEntity
  8
Visible
100
AcDbSpline
210
0.0
220
0.0
230
1.0
 70
    12
 71
     3
 72
     8
 73
     4
 74
     0
 42
0.000000001
 43
0.0000000001
 40
0.0
 40
0.0
 40
0.0
 40
0.0
 40
1.0
 40
1.0
 40
1.0
 40
1.0
 10
38.84331856275821
 20
216.6928592807181
 30
0.0
 41
1.0
 10
39.0906576871239
 20
216.6928592807181
 30
0.0
 41
1.0
 10
39.86800864317775
 20
216.6575256977612
 30
0.0
 41
1.0
 10
40.64535825134043
 20
216.0921802831181
 30
0.0
 41
1.0
  0
LINE
  5
50A
330
70
100
AcDbEntity
  8
Visible
100
AcDbLine
 10
36.97061
 20
216.692859
 30
0.0
 11
38.843319
 21
216.692859
 31
0.0
  0
SPLINE
  5
50B
330
70
100
AcDbEntity
  8
Visible
100
AcDbSpline
210
0.0
220
0.0
230
1.0
 70
    12
 71
     3
 72
     8
 73
     4
 74
     0
 42
0.000000001
 43
0.0000000001
 40
0.0
 40
0.0
 40
0.0
 40
0.0
 40
1.0
 40
1.0
 40
1.0
 40
1.0
 10
31.9884983337779
 20
222.2756516528043
 30
0.0
 41
1.0
 10
31.67049136955393
 20
219.2722512732416
 30
0.0
 41
1.0
 10
34.002543563769
 20
216.6928592807181
 30
0.0
 41
1.0
 10
36.97060968643018
 20
216.6928592807181
 30
0.0
 41
1.0
  0
SPLINE
  5
50C
330
70
100
AcDbEntity
  8
Visible
100
AcDbSpline
210
0.0
220
0.0
230
1.0
 70
    12
 71
     3
 72
     8
 73
     4
 74
     0
 42
0.000000001
 43
0.0000000001
 40
0.0
 40
0.0
 40
0.0
 40
0.0
 40
1.0
 40
1.0
 40
1.0
 40
1.0
 10
37.11194604008961
 20
226.7277504998237
 30
0.0
 41
1.0
 10
34.53255539545535
 20
226.7277504998237
 30
0.0
 41
1.0
 10
32.27117137807181
 20
224.8550409495492
 30
0.0
 41
1.0
 10
31.9884983337779
 20
222.2756516528043
 30
0.0
 41
1.0
  0
LINE
  5
50D
330
70
100
AcDbEntity
  8
Visible
100
AcDbLine
 10
38.878652
 20
226.72775
 30
0.0
 11
37.111946
 21
226.72775
 31
0.0
  0
SPLINE
  5
50E
330
70
100
AcDbEntity
  8
Visible
100
AcDbSpline
210
0.0
220
0.0
230
1.0
 70
    12
 71
     3
 72
     8
 73
     4
 74
     0
 42
0.000000001
 43
0.0000000001
 40
0.0
 40
0.0
 40
0.0
 40
0.0
 40
1.0
 40
1.0
 40
1.0
 40
1.0
 10
39.76200519852864
 20
226.8690875274296
 30
0.0
 41
1.0
 10
39.44399756036001
 20
226.7630840827806
 30
0.0
 41
1.0
 10
39.1259912700807
 20
226.7277504998237
 30
0.0
 41
1.0
 10
38.87865214571503
 20
226.7277504998237
 30
0.0
 41
1.0
  0
SPLINE
  5
50F
330
70
100
AcDbEntity
  8
Visible
100
AcDbSpline
210
0.0
220
0.0
230
1.0
 70
    12
 71
     3
 72
     8
 73
     4
 74
     0
 42
0.000000001
 43
0.0000000001
 40
0.0
 40
0.0
 40
0.0
 40
0.0
 40
1.0
 40
1.0
 40
1.0
 40
1.0
 10
40.53935615458067
 20
227.2577623315119
 30
0.0
 41
1.0
 10
40.32735196106114
 20
227.116425303906
 30
0.0
 41
1.0
 10
40.04467790584931
 20
226.9750882763001
 30
0.0
 41
1.0
 10
39.76200519852864
 20
226.8690875274296
 30
0.0
 41
1.0
  0
SPLINE
  5
510
330
70
100
AcDbEntity
  8
Visible
100
AcDbSpline
210
0.0
220
0.0
230
1.0
 70
    12
 71
     3
 72
     8
 73
     4
 74
     0
 42
0.000000001
 43
0.0000000001
 40
0.0
 40
0.0
 40
0.0
 40
0.0
 40
1.0
 40
1.0
 40
1.0
 40
1.0
 10
41.31670711063452
 20
226.8337539444729
 30
0.0
 41
1.0
 10
41.31670711063452
 20
227.2224287485551
 30
0.0
 41
1.0
 10
40.85736379274931
 20
227.4697692208101
 30
0.0
 41
1.0
 10
40.53935615458067
 20
227.2577623315119
 30
0.0
 41
1.0
  0
LINE
  5
511
330
70
100
AcDbEntity
  8
Visible
100
AcDbLine
 10
41.281372
 20
216.410188
 30
0.0
 11
41.316707
 21
226.833754
 31
0.0
  0
SPLINE
  5
512
330
70
100
AcDbEntity
  8
Visible
100
AcDbSpline
210
0.0
220
0.0
230
1.0
 70
    12
 71
     3
 72
     8
 73
     4
 74
     0
 42
0.000000001
 43
0.0000000001
 40
0.0
 40
0.0
 40
0.0
 40
0.0
 40
1.0
 40
1.0
 40
1.0
 40
1.0
 10
34.39121971573877
 20
194.4323650456226
 30
0.0
 41
1.0
 10
34.42655397264025
 20
195.8103936513871
 30
0.0
 41
1.0
 10
35.59257973277636
 20
196.9764207594107
 30
0.0
 41
1.0
 10
36.97061036037485
 20
197.0117570381462
 30
0.0
 41
1.0
  0
SPLINE
  5
513
330
70
100
AcDbEntity
  8
Visible
100
AcDbSpline
210
0.0
220
0.0
230
1.0
 70
    12
 71
     3
 72
     8
 73
     4
 74
     0
 42
0.000000001
 43
0.0000000001
 40
0.0
 40
0.0
 40
0.0
 40
0.0
 40
1.0
 40
1.0
 40
1.0
 40
1.0
 10
37.00594461727633
 20
191.7823058871854
 30
0.0
 41
1.0
 10
35.55724547587488
 20
191.7823058871854
 30
0.0
 41
1.0
 10
34.39121971573877
 20
192.9836638823872
 30
0.0
 41
1.0
 10
34.39121971573877
 20
194.4323650456226
 30
0.0
 41
1.0
  0
SPLINE
  5
514
330
70
100
AcDbEntity
  8
Visible
100
AcDbSpline
210
0.0
220
0.0
230
1.0
 70
    12
 71
     3
 72
     8
 73
     4
 74
     0
 42
0.000000001
 43
0.0000000001
 40
0.0
 40
0.0
 40
0.0
 40
0.0
 40
1.0
 40
1.0
 40
1.0
 40
1.0
 10
39.62066951881207
 20
194.3970341584463
 30
0.0
 41
1.0
 10
39.58533593585526
 20
192.9483276036499
 30
0.0
 41
1.0
 10
38.4193095017763
 20
191.7823058871854
 30
0.0
 41
1.0
 10
37.00594461727633
 20
191.7823058871854
 30
0.0
 41
1.0
  0
SPLINE
  5
515
330
70
100
AcDbEntity
  8
Visible
100
AcDbSpline
210
0.0
220
0.0
230
1.0
 70
    12
 71
     3
 72
     8
 73
     4
 74
     0
 42
0.000000001
 43
0.0000000001
 40
0.0
 40
0.0
 40
0.0
 40
0.0
 40
1.0
 40
1.0
 40
1.0
 40
1.0
 10
36.97061036037485
 20
197.0117570381462
 30
0.0
 41
1.0
 10
38.4193095017763
 20
197.0470933168835
 30
0.0
 41
1.0
 10
39.62066951881207
 20
195.8457299301226
 30
0.0
 41
1.0
 10
39.62066951881207
 20
194.3970341584463
 30
0.0
 41
1.0
  0
SPLINE
  5
516
330
70
100
AcDbEntity
  8
Visible
100
AcDbSpline
210
0.0
220
0.0
230
1.0
 70
    12
 71
     3
 72
     8
 73
     4
 74
     0
 42
0.000000001
 43
0.0000000001
 40
0.0
 40
0.0
 40
0.0
 40
0.0
 40
1.0
 40
1.0
 40
1.0
 40
1.0
 10
40.64535825134043
 20
188.7789001160636
 30
0.0
 41
1.0
 10
40.92803095866293
 20
188.5668932267654
 30
0.0
 41
1.0
 10
41.28137217978656
 20
188.7789001160636
 30
0.0
 41
1.0
 10
41.28137217978656
 20
189.0969050584517
 30
0.0
 41
1.0
  0
SPLINE
  5
517
330
70
100
AcDbEntity
  8
Visible
100
AcDbSpline
210
0.0
220
0.0
230
1.0
 70
    12
 71
     3
 72
     8
 73
     4
 74
     0
 42
0.000000001
 43
0.0000000001
 40
0.0
 40
0.0
 40
0.0
 40
0.0
 40
1.0
 40
1.0
 40
1.0
 40
1.0
 10
38.84331856275821
 20
189.3795791136635
 30
0.0
 41
1.0
 10
39.0906576871239
 20
189.3795791136635
 30
0.0
 41
1.0
 10
39.90334222613455
 20
189.344242834928
 30
0.0
 41
1.0
 10
40.64535825134043
 20
188.7789001160636
 30
0.0
 41
1.0
  0
LINE
  5
518
330
70
100
AcDbEntity
  8
Visible
100
AcDbLine
 10
36.97061
 20
189.379579
 30
0.0
 11
38.843319
 21
189.379579
 31
0.0
  0
SPLINE
  5
519
330
70
100
AcDbEntity
  8
Visible
100
AcDbSpline
210
0.0
220
0.0
230
1.0
 70
    12
 71
     3
 72
     8
 73
     4
 74
     0
 42
0.000000001
 43
0.0000000001
 40
0.0
 40
0.0
 40
0.0
 40
0.0
 40
1.0
 40
1.0
 40
1.0
 40
1.0
 10
31.9884983337779
 20
194.9623714857516
 30
0.0
 41
1.0
 10
31.67049136955393
 20
191.9236348274516
 30
0.0
 41
1.0
 10
34.002543563769
 20
189.3795791136635
 30
0.0
 41
1.0
 10
36.97060968643018
 20
189.3795791136635
 30
0.0
 41
1.0
  0
SPLINE
  5
51A
330
70
100
AcDbEntity
  8
Visible
100
AcDbSpline
210
0.0
220
0.0
230
1.0
 70
    12
 71
     3
 72
     8
 73
     4
 74
     0
 42
0.000000001
 43
0.0000000001
 40
0.0
 40
0.0
 40
0.0
 40
0.0
 40
1.0
 40
1.0
 40
1.0
 40
1.0
 10
37.11194604008961
 20
199.4144730285498
 30
0.0
 41
1.0
 10
34.53255539545535
 20
199.4144730285498
 30
0.0
 41
1.0
 10
32.27117137807181
 20
197.5417634782752
 30
0.0
 41
1.0
 10
31.9884983337779
 20
194.9623714857516
 30
0.0
 41
1.0
  0
LINE
  5
51B
330
70
100
AcDbEntity
  8
Visible
100
AcDbLine
 10
38.878652
 20
199.414473
 30
0.0
 11
37.111946
 21
199.414473
 31
0.0
  0
SPLINE
  5
51C
330
70
100
AcDbEntity
  8
Visible
100
AcDbSpline
210
0.0
220
0.0
230
1.0
 70
    12
 71
     3
 72
     8
 73
     4
 74
     0
 42
0.000000001
 43
0.0000000001
 40
0.0
 40
0.0
 40
0.0
 40
0.0
 40
1.0
 40
1.0
 40
1.0
 40
1.0
 10
39.76200519852864
 20
199.5558073603752
 30
0.0
 41
1.0
 10
39.44399756036001
 20
199.4498039157261
 30
0.0
 41
1.0
 10
39.1259912700807
 20
199.4144730285498
 30
0.0
 41
1.0
 10
38.87865214571503
 20
199.4144730285498
 30
0.0
 41
1.0
  0
SPLINE
  5
51D
330
70
100
AcDbEntity
  8
Visible
100
AcDbSpline
210
0.0
220
0.0
230
1.0
 70
    12
 71
     3
 72
     8
 73
     4
 74
     0
 42
0.000000001
 43
0.0000000001
 40
0.0
 40
0.0
 40
0.0
 40
0.0
 40
1.0
 40
1.0
 40
1.0
 40
1.0
 10
40.53935615458067
 20
199.9444848602379
 30
0.0
 41
1.0
 10
40.32735196106114
 20
199.8031505284107
 30
0.0
 41
1.0
 10
40.04467790584931
 20
199.6618108050261
 30
0.0
 41
1.0
 10
39.76200519852864
 20
199.5558073603752
 30
0.0
 41
1.0
  0
SPLINE
  5
51E
330
70
100
AcDbEntity
  8
Visible
100
AcDbSpline
210
0.0
220
0.0
230
1.0
 70
    12
 71
     3
 72
     8
 73
     4
 74
     0
 42
0.000000001
 43
0.0000000001
 40
0.0
 40
0.0
 40
0.0
 40
0.0
 40
1.0
 40
1.0
 40
1.0
 40
1.0
 10
41.31670711063452
 20
199.5204764731989
 30
0.0
 41
1.0
 10
41.31670711063452
 20
199.9091539730598
 30
0.0
 41
1.0
 10
40.85736379274931
 20
200.1564917495362
 30
0.0
 41
1.0
 10
40.53935615458067
 20
199.9444848602379
 30
0.0
 41
1.0
  0
LINE
  5
51F
330
70
100
AcDbEntity
  8
Visible
100
AcDbLine
 10
41.281372
 20
189.096905
 30
0.0
 11
41.316707
 21
199.520476
 31
0.0
  0
LINE
  5
520
330
70
100
AcDbEntity
  8
Visible
100
AcDbLine
 10
174.038219
 20
253.393362
 30
0.0
 11
174.038219
 21
243.393362
 31
0.0
  0
LINE
  5
521
330
70
100
AcDbEntity
  8
Visible
100
AcDbLine
 10
184.038219
 20
253.393362
 30
0.0
 11
174.038219
 21
253.393362
 31
0.0
  0
LINE
  5
522
330
70
100
AcDbEntity
  8
Visible
100
AcDbLine
 10
184.038219
 20
243.393362
 30
0.0
 11
184.038219
 21
253.393362
 31
0.0
  0
LINE
  5
523
330
70
100
AcDbEntity
  8
Visible
100
AcDbLine
 10
174.038219
 20
243.393362
 30
0.0
 11
184.038219
 21
243.393362
 31
0.0
  0
ENDSEC
  0
SECTION
  2
OBJECTS
  0
DICTIONARY
  5
C
330
0
100
AcDbDictionary
281
     1
  3
ACAD_COLOR
350
63
  3
ACAD_DETAILVIEWSTYLE
350
6A
  3
ACAD_GROUP
350
D
  3
ACAD_LAYOUT
350
62
  3
ACAD_MATERIAL
350
10
  3
ACAD_MLEADERSTYLE
350
66
  3
ACAD_MLINESTYLE
350
5F
  3
ACAD_PLOTSETTINGS
350
61
  3
ACAD_PLOTSTYLENAME
350
E
  3
ACAD_SCALELIST
350
42
  3
ACAD_SECTIONVIEWSTYLE
350
68
  3
ACAD_TABLESTYLE
350
64
  3
ACAD_VISUALSTYLE
350
29
  3
ACDB_RECOMPOSE_DATA
350
552
  3
AcDbVariableDictionary
350
549
  0
DICTIONARY
  5
A4
330
70
100
AcDbDictionary
280
     1
281
     1
  3
ACAD_SORTENTS
360
A5
  0
DICTIONARY
  5
63
102
{ACAD_REACTORS
330
C
102
}
330
C
100
AcDbDictionary
281
     1
  0
DICTIONARY
  5
6A
102
{ACAD_REACTORS
330
C
102
}
330
C
100
AcDbDictionary
281
     1
  3
Imperial24
350
6B
  0
DICTIONARY
  5
D
102
{ACAD_REACTORS
330
C
102
}
330
C
100
AcDbDictionary
281
     1
  0
DICTIONARY
  5
62
102
{ACAD_REACTORS
330
C
102
}
330
C
100
AcDbDictionary
281
     1
  3
Model
350
73
  3
Sheet1
350
6F
  3
Sheet2
350
77
  0
DICTIONARY
  5
10
102
{ACAD_REACTORS
330
C
102
}
330
C
100
AcDbDictionary
281
     1
  3
ByBlock
350
19
  3
ByLayer
350
11
  3
Global
350
21
  0
DICTIONARY
  5
66
102
{ACAD_REACTORS
330
C
102
}
330
C
100
AcDbDictionary
281
     1
  3
Standard
350
67
  0
DICTIONARY
  5
5F
102
{ACAD_REACTORS
330
C
102
}
330
C
100
AcDbDictionary
281
     1
  3
Standard
350
60
  0
DICTIONARY
  5
61
102
{ACAD_REACTORS
330
C
102
}
330
C
100
AcDbDictionary
281
     1
  0
ACDBDICTIONARYWDFLT
  5
E
102
{ACAD_REACTORS
330
C
102
}
330
C
100
AcDbDictionary
281
     1
  3
Normal
350
F
100
AcDbDictionaryWithDefault
340
F
  0
DICTIONARY
  5
42
102
{ACAD_REACTORS
330
C
102
}
330
C
100
AcDbDictionary
281
     1
  3
A0
350
43
  3
A1
350
44
  3
A2
350
45
  3
A3
350
46
  3
A4
350
47
  3
A5
350
48
  3
A6
350
49
  3
A7
350
4A
  3
A8
350
4B
  3
A9
350
4C
  3
B0
350
4D
  3
B1
350
4E
  3
B2
350
4F
  3
B3
350
50
  3
B4
350
51
  3
B5
350
52
  3
B6
350
53
  0
DICTIONARY
  5
68
102
{ACAD_REACTORS
330
C
102
}
330
C
100
AcDbDictionary
281
     1
  3
Imperial24
350
69
  0
DICTIONARY
  5
64
102
{ACAD_REACTORS
330
C
102
}
330
C
100
AcDbDictionary
281
     1
  3
Standard
350
65
  0
DICTIONARY
  5
29
102
{ACAD_REACTORS
330
C
102
}
330
C
100
AcDbDictionary
281
     1
  3
2dWireframe
350
2F
  3
Basic
350
2E
  3
Brighten
350
35
  3
ColorChange
350
39
  3
Conceptual
350
32
  3
Dim
350
34
  3
EdgeColorOff
350
41
  3
Facepattern
350
38
  3
Flat
350
2A
  3
FlatWithEdges
350
2B
  3
Gouraud
350
2C
  3
GouraudWithEdges
350
2D
  3
Hidden
350
31
  3
JitterOff
350
3F
  3
Linepattern
350
37
  3
OverhangOff
350
40
  3
Realistic
350
33
  3
Shaded
350
3E
  3
Shaded with edges
350
3D
  3
Shades of Gray
350
3A
  3
Sketchy
350
3B
  3
Thicken
350
36
  3
Wireframe
350
30
  3
X-Ray
350
3C
  0
XRECORD
  5
552
102
{ACAD_REACTORS
330
C
102
}
330
C
100
AcDbXrecord
280
     1
 90
        1
330
65
  0
DICTIONARY
  5
549
102
{ACAD_REACTORS
330
C
102
}
330
C
100
AcDbDictionary
281
     1
  3
ANNOALLVISIBLE
350
54E
  3
CANNOSCALE
350
54F
  3
CMLEADERSTYLE
350
54B
  3
CTABLESTYLE
350
54A
  3
CVIEWDETAILSTYLE
350
54C
  3
CVIEWSECTIONSTYLE
350
54D
  0
SORTENTSTABLE
  5
A5
102
{ACAD_REACTORS
330
A4
102
}
330
A4
100
AcDbSortentsTable
330
70
  0
ACDBDETAILVIEWSTYLE
  5
6B
102
{ACAD_XDICTIONARY
360
555
102
}
102
{ACAD_REACTORS
330
6A
102
}
330
6A
100
AcDbModelDocViewStyle
 70
     0
  3
Imperial24
290
     0
100
AcDbDetailViewStyle
 70
     0
 71
     0
 90
        3
 71
     1
340
55
 62
   256
 40
0.24
340
0
 62
   256
 40
0.24
300

 40
0.36
280
     3
 71
     2
340
5D
 90
       25
 62
   256
 71
     3
340
55
 62
   256
 40
0.24
 90
        1
 40
0.75
 90
        1
300
%<\AcVar ViewType \f "%tc1">% %<\AcVar ViewDetailId>%\PSCALE %<\AcVar ViewScale \f "%sn">%
 71
     4
340
5D
 90
       25
 62
   256
340
5D
 90
       25
 62
   256
280
     0
  0
LAYOUT
  5
73
102
{ACAD_REACTORS
330
62
102
}
330
62
100
AcDbPlotSettings
  1

  2
AutoCAD PDF (High Quality Print).pc3
  4
ISO_full_bleed_A4_(210.00_x_297.00_MM)
  6

 40
0.0
 41
0.0
 42
0.0
 43
0.0
 44
210.0
 45
297.0
 46
0.0
 47
0.0
 48
0.0
 49
0.0
140
0.0
141
0.0
142
1.0
143
6.013018
 70
 11952
 72
     1
 73
     0
 74
     0
  7

 75
     0
147
0.166306
 76
     0
 77
     2
 78
   300
148
433.288685
149
85.581662
100
AcDbLayout
  1
Model
 70
     1
 71
     0
 10
0.0
 20
0.0
 11
12.0
 21
9.0
 12
0.0
 22
0.0
 32
0.0
 14
0.0
 24
0.0
 34
0.0
 15
0.0
 25
0.0
 35
0.0
146
0.0
 13
0.0
 23
0.0
 33
0.0
 16
1.0
 26
0.0
 36
0.0
 17
0.0
 27
1.0
 37
0.0
 76
     0
330
70
1001
ACAD_PSEXT
1000
AutoCAD PDF (High Quality Print).pc3
1000
DWG To PDF
1000
File
1000

1070
     0
  0
LAYOUT
  5
6F
102
{ACAD_REACTORS
330
62
102
}
330
62
100
AcDbPlotSettings
  1

  2
None
  4

  6

 40
0.0
 41
0.0
 42
0.0
 43
0.0
 44
0.0
 45
0.0
 46
0.0
 47
0.0
 48
0.0
 49
0.0
140
0.0
141
0.0
142
1.0
143
1.0
 70
   688
 72
     0
 73
     0
 74
     5
  7

 75
    16
147
1.0
 76
     0
 77
     2
 78
   300
148
0.0
149
0.0
100
AcDbLayout
  1
Sheet1
 70
     1
 71
     1
 10
0.0
 20
0.0
 11
12.0
 21
9.0
 12
0.0
 22
0.0
 32
0.0
 14
0.0
 24
0.0
 34
0.0
 15
0.0
 25
0.0
 35
0.0
146
0.0
 13
0.0
 23
0.0
 33
0.0
 16
1.0
 26
0.0
 36
0.0
 17
0.0
 27
1.0
 37
0.0
 76
     0
330
6C
  0
LAYOUT
  5
77
102
{ACAD_REACTORS
330
62
102
}
330
62
100
AcDbPlotSettings
  1

  2
None
  4

  6

 40
0.0
 41
0.0
 42
0.0
 43
0.0
 44
0.0
 45
0.0
 46
0.0
 47
0.0
 48
0.0
 49
0.0
140
0.0
141
0.0
142
1.0
143
1.0
 70
   688
 72
     0
 73
     0
 74
     5
  7

 75
    16
147
1.0
 76
     0
 77
     2
 78
   300
148
0.0
149
0.0
100
AcDbLayout
  1
Sheet2
 70
     1
 71
     2
 10
0.0
 20
0.0
 11
12.0
 21
9.0
 12
0.0
 22
0.0
 32
0.0
 14
0.0
 24
0.0
 34
0.0
 15
0.0
 25
0.0
 35
0.0
146
0.0
 13
0.0
 23
0.0
 33
0.0
 16
1.0
 26
0.0
 36
0.0
 17
0.0
 27
1.0
 37
0.0
 76
     0
330
74
  0
MATERIAL
  5
19
102
{ACAD_XDICTIONARY
360
1A
102
}
102
{ACAD_REACTORS
330
10
102
}
330
10
100
AcDbMaterial
  1
ByBlock
 72
     0
 43
0.020833
 43
0.0
 43
0.0
 43
0.0
 43
0.0
 43
0.020833
 43
0.0
 43
0.0
 43
0.0
 43
0.0
 43
1.0
 43
0.0
 43
0.0
 43
0.0
 43
0.0
 43
1.0
 77
     0
 47
0.020833
 47
0.0
 47
0.0
 47
0.0
 47
0.0
 47
0.020833
 47
0.0
 47
0.0
 47
0.0
 47
0.0
 47
1.0
 47
0.0
 47
0.0
 47
0.0
 47
0.0
 47
1.0
171
     0
 49
0.020833
 49
0.0
 49
0.0
 49
0.0
 49
0.0
 49
0.020833
 49
0.0
 49
0.0
 49
0.0
 49
0.0
 49
1.0
 49
0.0
 49
0.0
 49
0.0
 49
0.0
 49
1.0
175
     0
142
0.020833
142
0.0
142
0.0
142
0.0
142
0.0
142
0.020833
142
0.0
142
0.0
142
0.0
142
0.0
142
1.0
142
0.0
142
0.0
142
0.0
142
0.0
142
1.0
179
     0
144
0.020833
144
0.0
144
0.0
144
0.0
144
0.0
144
0.020833
144
0.0
144
0.0
144
0.0
144
0.0
144
1.0
144
0.0
144
0.0
144
0.0
144
0.0
144
1.0
147
0.020833
147
0.0
147
0.0
147
0.0
147
0.0
147
0.020833
147
0.0
147
0.0
147
0.0
147
0.0
147
1.0
147
0.0
147
0.0
147
0.0
147
0.0
147
1.0
  0
MATERIAL
  5
11
102
{ACAD_XDICTIONARY
360
12
102
}
102
{ACAD_REACTORS
330
10
102
}
330
10
100
AcDbMaterial
  1
ByLayer
 72
     0
 43
0.020833
 43
0.0
 43
0.0
 43
0.0
 43
0.0
 43
0.020833
 43
0.0
 43
0.0
 43
0.0
 43
0.0
 43
1.0
 43
0.0
 43
0.0
 43
0.0
 43
0.0
 43
1.0
 77
     0
 47
0.020833
 47
0.0
 47
0.0
 47
0.0
 47
0.0
 47
0.020833
 47
0.0
 47
0.0
 47
0.0
 47
0.0
 47
1.0
 47
0.0
 47
0.0
 47
0.0
 47
0.0
 47
1.0
171
     0
 49
0.020833
 49
0.0
 49
0.0
 49
0.0
 49
0.0
 49
0.020833
 49
0.0
 49
0.0
 49
0.0
 49
0.0
 49
1.0
 49
0.0
 49
0.0
 49
0.0
 49
0.0
 49
1.0
175
     0
142
0.020833
142
0.0
142
0.0
142
0.0
142
0.0
142
0.020833
142
0.0
142
0.0
142
0.0
142
0.0
142
1.0
142
0.0
142
0.0
142
0.0
142
0.0
142
1.0
179
     0
144
0.020833
144
0.0
144
0.0
144
0.0
144
0.0
144
0.020833
144
0.0
144
0.0
144
0.0
144
0.0
144
1.0
144
0.0
144
0.0
144
0.0
144
0.0
144
1.0
147
0.020833
147
0.0
147
0.0
147
0.0
147
0.0
147
0.020833
147
0.0
147
0.0
147
0.0
147
0.0
147
1.0
147
0.0
147
0.0
147
0.0
147
0.0
147
1.0
  0
MATERIAL
  5
21
102
{ACAD_XDICTIONARY
360
22
102
}
102
{ACAD_REACTORS
330
10
102
}
330
10
100
AcDbMaterial
  1
Global
 72
     0
 43
0.020833
 43
0.0
 43
0.0
 43
0.0
 43
0.0
 43
0.020833
 43
0.0
 43
0.0
 43
0.0
 43
0.0
 43
1.0
 43
0.0
 43
0.0
 43
0.0
 43
0.0
 43
1.0
 77
     0
 47
0.020833
 47
0.0
 47
0.0
 47
0.0
 47
0.0
 47
0.020833
 47
0.0
 47
0.0
 47
0.0
 47
0.0
 47
1.0
 47
0.0
 47
0.0
 47
0.0
 47
0.0
 47
1.0
171
     0
 49
0.020833
 49
0.0
 49
0.0
 49
0.0
 49
0.0
 49
0.020833
 49
0.0
 49
0.0
 49
0.0
 49
0.0
 49
1.0
 49
0.0
 49
0.0
 49
0.0
 49
0.0
 49
1.0
175
     0
142
0.020833
142
0.0
142
0.0
142
0.0
142
0.0
142
0.020833
142
0.0
142
0.0
142
0.0
142
0.0
142
1.0
142
0.0
142
0.0
142
0.0
142
0.0
142
1.0
179
     0
144
0.020833
144
0.0
144
0.0
144
0.0
144
0.0
144
0.020833
144
0.0
144
0.0
144
0.0
144
0.0
144
1.0
144
0.0
144
0.0
144
0.0
144
0.0
144
1.0
147
0.020833
147
0.0
147
0.0
147
0.0
147
0.0
147
0.020833
147
0.0
147
0.0
147
0.0
147
0.0
147
1.0
147
0.0
147
0.0
147
0.0
147
0.0
147
1.0
  0
MLEADERSTYLE
  5
67
102
{ACAD_REACTORS
330
66
102
}
330
66
100
AcDbMLeaderStyle
179
     2
170
     2
171
     1
172
     0
 90
        2
 40
0.0
 41
0.0
173
     1
 91
-1056964608
340
5B
 92
       -2
290
     1
 42
0.09
291
     1
 43
0.36
  3
Standard
 44
0.18
300

342
55
174
     1
178
     6
175
     1
176
     0
 93
-1056964608
 45
0.18
292
     0
297
     0
 46
0.18
 94
-1056964608
 47
1.0
 49
1.0
140
1.0
293
     1
141
0.0
294
     1
177
     0
142
1.0
295
     0
296
     0
143
0.125
271
     0
272
     9
273
     9
298
     1
  0
MLINESTYLE
  5
60
102
{ACAD_REACTORS
330
5F
102
}
330
5F
100
AcDbMlineStyle
  2
STANDARD
 70
     0
  3

 62
   256
 51
90.0
 52
90.0
 71
     0
  0
ACDBPLACEHOLDER
  5
F
102
{ACAD_REACTORS
330
E
102
}
330
E
  0
SCALE
  5
43
102
{ACAD_REACTORS
330
42
102
}
330
42
100
AcDbScale
 70
     0
300
1:1
140
1.0
141
1.0
290
     1
  0
SCALE
  5
44
102
{ACAD_REACTORS
330
42
102
}
330
42
100
AcDbScale
 70
     0
300
1:2
140
1.0
141
2.0
290
     0
  0
SCALE
  5
45
102
{ACAD_REACTORS
330
42
102
}
330
42
100
AcDbScale
 70
     0
300
1:4
140
1.0
141
4.0
290
     0
  0
SCALE
  5
46
102
{ACAD_REACTORS
330
42
102
}
330
42
100
AcDbScale
 70
     0
300
1:5
140
1.0
141
5.0
290
     0
  0
SCALE
  5
47
102
{ACAD_REACTORS
330
42
102
}
330
42
100
AcDbScale
 70
     0
300
1:8
140
1.0
141
8.0
290
     0
  0
SCALE
  5
48
102
{ACAD_REACTORS
330
42
102
}
330
42
100
AcDbScale
 70
     0
300
1:10
140
1.0
141
10.0
290
     0
  0
SCALE
  5
49
102
{ACAD_REACTORS
330
42
102
}
330
42
100
AcDbScale
 70
     0
300
1:16
140
1.0
141
16.0
290
     0
  0
SCALE
  5
4A
102
{ACAD_REACTORS
330
42
102
}
330
42
100
AcDbScale
 70
     0
300
1:20
140
1.0
141
20.0
290
     0
  0
SCALE
  5
4B
102
{ACAD_REACTORS
330
42
102
}
330
42
100
AcDbScale
 70
     0
300
1:30
140
1.0
141
30.0
290
     0
  0
SCALE
  5
4C
102
{ACAD_REACTORS
330
42
102
}
330
42
100
AcDbScale
 70
     0
300
1:40
140
1.0
141
40.0
290
     0
  0
SCALE
  5
4D
102
{ACAD_REACTORS
330
42
102
}
330
42
100
AcDbScale
 70
     0
300
1:50
140
1.0
141
50.0
290
     0
  0
SCALE
  5
4E
102
{ACAD_REACTORS
330
42
102
}
330
42
100
AcDbScale
 70
     0
300
1:100
140
1.0
141
100.0
290
     0
  0
SCALE
  5
4F
102
{ACAD_REACTORS
330
42
102
}
330
42
100
AcDbScale
 70
     0
300
2:1
140
2.0
141
1.0
290
     0
  0
SCALE
  5
50
102
{ACAD_REACTORS
330
42
102
}
330
42
100
AcDbScale
 70
     0
300
4:1
140
4.0
141
1.0
290
     0
  0
SCALE
  5
51
102
{ACAD_REACTORS
330
42
102
}
330
42
100
AcDbScale
 70
     0
300
8:1
140
8.0
141
1.0
290
     0
  0
SCALE
  5
52
102
{ACAD_REACTORS
330
42
102
}
330
42
100
AcDbScale
 70
     0
300
10:1
140
10.0
141
1.0
290
     0
  0
SCALE
  5
53
102
{ACAD_REACTORS
330
42
102
}
330
42
100
AcDbScale
 70
     0
300
100:1
140
100.0
141
1.0
290
     0
  0
ACDBSECTIONVIEWSTYLE
  5
69
102
{ACAD_XDICTIONARY
360
553
102
}
102
{ACAD_REACTORS
330
68
102
}
330
68
100
AcDbModelDocViewStyle
 70
     0
  3
Imperial24
290
     0
100
AcDbSectionViewStyle
 70
     0
 71
     0
 90
       78
 71
     1
340
55
 62
   256
 40
0.24
340
0
340
0
 62
   256
 40
0.24
300
I, O, Q, S, X, Z
 40
0.48
 90
        3
 40
0.18
 90
        1
 71
     2
340
5D
 90
       25
 62
   256
340
5D
 90
       50
 62
   256
 40
0.24
 40
0.0
 40
0.24
 71
     3
340
55
 62
   256
 40
0.24
 90
        1
 40
0.75
 90
        1
300
%<\AcVar ViewType \f "%tc1">% %<\AcVar ViewSectionStartId>%-%<\AcVar ViewSectionEndId>%\PSCALE %<\AcVar ViewScale \f "%sn">%
 71
     4
 62
   256
 62
   257
300
ANSI31
 40
1.0
 90
        0
290
     0
290
     0
 90
        6
 40
0.0
 40
1.570796
 40
0.261799
 40
1.308997
 40
-0.261799
 40
1.832596
  0
TABLESTYLE
  5
65
102
{ACAD_XDICTIONARY
360
550
102
}
102
{ACAD_REACTORS
330
64
102
}
330
64
100
AcDbTableStyle
280
     0
  3
Standard
 70
     0
 71
     0
 40
1.5
 41
1.5
280
     0
281
     0
  7
Standard
140
0.18
170
     2
 62
     0
 63
     7
283
     0
 90
      512
 91
        0
  1

274
    -2
284
     1
 64
     0
275
    -2
285
     1
 65
     0
276
    -2
286
     1
 66
     0
277
    -2
287
     1
 67
     0
278
    -2
288
     1
 68
     0
279
    -2
289
     1
 69
     0
  7
Standard
140
0.25
170
     5
 62
     0
 63
     7
283
     0
 90
      512
 91
        0
  1

274
    -2
284
     1
 64
     0
275
    -2
285
     1
 65
     0
276
    -2
286
     1
 66
     0
277
    -2
287
     1
 67
     0
278
    -2
288
     1
 68
     0
279
    -2
289
     1
 69
     0
  7
Standard
140
0.18
170
     5
 62
     0
 63
     7
283
     0
 90
      512
 91
        0
  1

274
    -2
284
     1
 64
     0
275
    -2
285
     1
 65
     0
276
    -2
286
     1
 66
     0
277
    -2
287
     1
 67
     0
278
    -2
288
     1
 68
     0
279
    -2
289
     1
 69
     0
  0
VISUALSTYLE
  5
2F
102
{ACAD_REACTORS
330
29
102
}
330
29
100
AcDbVisualStyle
  2
2dWireframe
 70
     4
177
     3
291
     0
 70
    58
 90
        0
176
     1
 90
        2
176
     1
 90
        0
176
     1
 90
        0
176
     1
 40
0.6
176
     1
 40
30.0
176
     1
 62
     7
420
 16777215
176
     1
 90
        1
176
     1
 90
        4
176
     1
 62
     7
176
     1
 62
   257
176
     1
 90
        1
176
     1
 90
        1
176
     1
 40
1.0
176
     1
 90
        0
176
     1
 62
   257
176
     1
 40
1.0
176
     1
 90
        1
176
     1
 90
        6
176
     1
 90
        2
176
     1
 62
     7
176
     1
 90
        5
176
     1
 90
        0
176
     1
 90
        0
176
     1
290
     0
176
     1
 90
        1
176
     1
 40
0.0
176
     1
 90
        0
176
     1
290
     1
176
     1
290
     1
176
     1
290
     0
176
     1
290
     0
176
     1
290
     0
176
     1
290
     0
176
     1
290
     0
176
     1
290
     0
176
     1
290
     0
176
     1
 90
       50
176
     1
 40
0.0
176
     1
 40
1.0
176
     1
 90
        0
176
     1
 62
    18
420
        0
176
     1
 90
       50
176
     1
 90
        3
176
     1
 62
     5
420
      255
176
     1
290
     0
176
     1
 90
       50
176
     1
 90
       50
176
     1
 90
       50
176
     1
290
     0
176
     1
 90
       50
176
     1
 62
   256
176
     0
 40
1.0
176
     0
 90
        2
176
     1
  1
strokes_ogs.tif
176
     1
290
     0
176
     1
 40
1.0
176
     1
 40
1.0
176
     1
1001
ACAD
1000
AcDbSavedByObjectVersion
1070
     0
  0
VISUALSTYLE
  5
2E
102
{ACAD_REACTORS
330
29
102
}
330
29
100
AcDbVisualStyle
  2
Basic
 70
     7
177
     3
291
     1
 70
    58
 90
        1
176
     1
 90
        0
176
     1
 90
        1
176
     1
 90
        0
176
     1
 40
0.6
176
     1
 40
30.0
176
     1
 62
     7
420
 16777215
176
     1
 90
        0
176
     1
 90
        4
176
     1
 62
     7
176
     1
 62
   257
176
     1
 90
        1
176
     1
 90
        1
176
     1
 40
1.0
176
     1
 90
        8
176
     1
 62
     7
176
     1
 40
1.0
176
     1
 90
        1
176
     1
 90
        6
176
     1
 90
        2
176
     1
 62
     7
176
     1
 90
        5
176
     1
 90
        0
176
     1
 90
        0
176
     1
290
     0
176
     1
 90
        1
176
     1
 40
0.0
176
     1
 90
        0
176
     1
290
     0
176
     1
290
     1
176
     1
290
     1
176
     1
290
     0
176
     1
290
     0
176
     1
290
     0
176
     1
290
     0
176
     1
290
     0
176
     1
290
     0
176
     1
 90
       50
176
     1
 40
0.0
176
     1
 40
1.0
176
     1
 90
        0
176
     1
 62
    18
420
        0
176
     1
 90
       50
176
     1
 90
        3
176
     1
 62
     5
420
      255
176
     1
290
     0
176
     1
 90
       50
176
     1
 90
       50
176
     1
 90
       50
176
     1
290
     0
176
     1
 90
       50
176
     1
 62
   256
176
     0
 40
1.0
176
     0
 90
        2
176
     1
  1
strokes_ogs.tif
176
     1
290
     0
176
     1
 40
1.0
176
     1
 40
1.0
176
     1
1001
ACAD
1000
AcDbSavedByObjectVersion
1070
     0
  0
VISUALSTYLE
  5
35
102
{ACAD_REACTORS
330
29
102
}
330
29
100
AcDbVisualStyle
  2
Brighten
 70
    12
177
     3
291
     1
 70
    58
 90
        2
176
     1
 90
        2
176
     1
 90
        0
176
     1
 90
        0
176
     1
 40
0.6
176
     1
 40
30.0
176
     1
 62
     7
420
 16777215
176
     1
 90
        1
176
     1
 90
        4
176
     1
 62
     7
176
     1
 62
   257
176
     1
 90
        1
176
     1
 90
        1
176
     1
 40
1.0
176
     1
 90
        8
176
     1
 62
     7
176
     1
 40
1.0
176
     1
 90
        1
176
     1
 90
        6
176
     1
 90
        2
176
     1
 62
     7
176
     1
 90
        5
176
     1
 90
        0
176
     1
 90
        0
176
     1
290
     0
176
     1
 90
        1
176
     1
 40
50.0
176
     1
 90
        0
176
     1
290
     0
176
     1
290
     1
176
     1
290
     1
176
     1
290
     0
176
     1
290
     0
176
     1
290
     0
176
     1
290
     0
176
     1
290
     0
176
     1
290
     0
176
     1
 90
       50
176
     1
 40
0.0
176
     1
 40
1.0
176
     1
 90
        0
176
     1
 62
    18
420
        0
176
     1
 90
       50
176
     1
 90
        3
176
     1
 62
     5
420
      255
176
     1
290
     0
176
     1
 90
       50
176
     1
 90
       50
176
     1
 90
       50
176
     1
290
     0
176
     1
 90
       50
176
     1
 62
   256
176
     0
 40
1.0
176
     0
 90
        2
176
     1
  1
strokes_ogs.tif
176
     1
290
     0
176
     1
 40
1.0
176
     1
 40
1.0
176
     1
1001
ACAD
1000
AcDbSavedByObjectVersion
1070
     0
  0
VISUALSTYLE
  5
39
102
{ACAD_REACTORS
330
29
102
}
330
29
100
AcDbVisualStyle
  2
ColorChange
 70
    16
177
     3
291
     1
 70
    58
 90
        2
176
     1
 90
        2
176
     1
 90
        3
176
     1
 90
        0
176
     1
 40
0.6
176
     1
 40
30.0
176
     1
 62
     8
420
  8421504
176
     1
 90
        1
176
     1
 90
        4
176
     1
 62
     7
176
     1
 62
   257
176
     1
 90
        1
176
     1
 90
        1
176
     1
 40
1.0
176
     1
 90
        8
176
     1
 62
     8
420
  8421504
176
     1
 40
1.0
176
     1
 90
        1
176
     1
 90
        6
176
     1
 90
        2
176
     1
 62
     7
176
     1
 90
        5
176
     1
 90
        0
176
     1
 90
        0
176
     1
290
     0
176
     1
 90
        1
176
     1
 40
0.0
176
     1
 90
        0
176
     1
290
     0
176
     1
290
     1
176
     1
290
     1
176
     1
290
     0
176
     1
290
     0
176
     1
290
     0
176
     1
290
     0
176
     1
290
     0
176
     1
290
     0
176
     1
 90
       50
176
     1
 40
0.0
176
     1
 40
1.0
176
     1
 90
        0
176
     1
 62
    18
420
        0
176
     1
 90
       50
176
     1
 90
        3
176
     1
 62
     5
420
      255
176
     1
290
     0
176
     1
 90
       50
176
     1
 90
       50
176
     1
 90
       50
176
     1
290
     0
176
     1
 90
       50
176
     1
 62
   256
176
     0
 40
1.0
176
     0
 90
        2
176
     1
  1
strokes_ogs.tif
176
     1
290
     0
176
     1
 40
1.0
176
     1
 40
1.0
176
     1
1001
ACAD
1000
AcDbSavedByObjectVersion
1070
     0
  0
VISUALSTYLE
  5
32
102
{ACAD_REACTORS
330
29
102
}
330
29
100
AcDbVisualStyle
  2
Conceptual
 70
     9
177
     3
291
     0
 70
    58
 90
        3
176
     1
 90
        2
176
     1
 90
        0
176
     1
 90
        0
176
     1
 40
0.6
176
     1
 40
30.0
176
     1
 62
     7
420
 16777215
176
     1
 90
        2
176
     1
 90
        2
176
     1
 62
     7
176
     1
 62
   257
176
     1
 90
        1
176
     1
 90
        1
176
     1
 40
179.0
176
     1
 90
        8
176
     1
 62
     7
176
     1
 40
1.0
176
     1
 90
        1
176
     1
 90
        6
176
     1
 90
        2
176
     1
 62
     7
176
     1
 90
        3
176
     1
 90
        0
176
     1
 90
        0
176
     1
290
     0
176
     1
 90
        1
176
     1
 40
0.0
176
     1
 90
        0
176
     1
290
     0
176
     1
290
     1
176
     1
290
     1
176
     1
290
     0
176
     1
290
     0
176
     1
290
     0
176
     1
290
     0
176
     1
290
     0
176
     1
290
     0
176
     1
 90
       50
176
     1
 40
0.0
176
     1
 40
1.0
176
     1
 90
        0
176
     1
 62
    18
420
        0
176
     1
 90
       50
176
     1
 90
        3
176
     1
 62
     5
420
      255
176
     1
290
     0
176
     1
 90
       50
176
     1
 90
       50
176
     1
 90
       50
176
     1
290
     0
176
     1
 90
       50
176
     1
 62
   256
176
     0
 40
1.0
176
     0
 90
        2
176
     1
  1
strokes_ogs.tif
176
     1
290
     0
176
     1
 40
1.0
176
     1
 40
1.0
176
     1
1001
ACAD
1000
AcDbSavedByObjectVersion
1070
     0
  0
VISUALSTYLE
  5
34
102
{ACAD_REACTORS
330
29
102
}
330
29
100
AcDbVisualStyle
  2
Dim
 70
    11
177
     3
291
     1
 70
    58
 90
        2
176
     1
 90
        2
176
     1
 90
        0
176
     1
 90
        0
176
     1
 40
0.6
176
     1
 40
30.0
176
     1
 62
     7
420
 16777215
176
     1
 90
        1
176
     1
 90
        4
176
     1
 62
     7
176
     1
 62
   257
176
     1
 90
        1
176
     1
 90
        1
176
     1
 40
1.0
176
     1
 90
        8
176
     1
 62
     7
176
     1
 40
1.0
176
     1
 90
        1
176
     1
 90
        6
176
     1
 90
        2
176
     1
 62
     7
176
     1
 90
        5
176
     1
 90
        0
176
     1
 90
        0
176
     1
290
     0
176
     1
 90
        1
176
     1
 40
-50.0
176
     1
 90
        0
176
     1
290
     0
176
     1
290
     1
176
     1
290
     1
176
     1
290
     0
176
     1
290
     0
176
     1
290
     0
176
     1
290
     0
176
     1
290
     0
176
     1
290
     0
176
     1
 90
       50
176
     1
 40
0.0
176
     1
 40
1.0
176
     1
 90
        0
176
     1
 62
    18
420
        0
176
     1
 90
       50
176
     1
 90
        3
176
     1
 62
     5
420
      255
176
     1
290
     0
176
     1
 90
       50
176
     1
 90
       50
176
     1
 90
       50
176
     1
290
     0
176
     1
 90
       50
176
     1
 62
   256
176
     0
 40
1.0
176
     0
 90
        2
176
     1
  1
strokes_ogs.tif
176
     1
290
     0
176
     1
 40
1.0
176
     1
 40
1.0
176
     1
1001
ACAD
1000
AcDbSavedByObjectVersion
1070
     0
  0
VISUALSTYLE
  5
41
102
{ACAD_REACTORS
330
29
102
}
330
29
100
AcDbVisualStyle
  2
EdgeColorOff
 70
    22
177
     3
291
     1
 70
    58
 90
        2
176
     0
 90
        2
176
     0
 90
        0
176
     0
 90
        0
176
     0
 40
0.6
176
     0
 40
30.0
176
     0
 62
     7
420
 16777215
176
     0
 90
        1
176
     0
 90
        4
176
     0
 62
     7
176
     0
 62
   257
176
     0
 90
        1
176
     0
 90
        1
176
     0
 40
1.0
176
     0
 90
        8
176
     2
 62
     7
176
     0
 40
1.0
176
     0
 90
        1
176
     0
 90
        6
176
     0
 90
        2
176
     0
 62
     7
176
     0
 90
        5
176
     0
 90
        0
176
     0
 90
        0
176
     0
290
     0
176
     0
 90
        1
176
     0
 40
0.0
176
     0
 90
        0
176
     0
290
     0
176
     0
290
     1
176
     0
290
     1
176
     0
290
     0
176
     0
290
     0
176
     0
290
     0
176
     0
290
     0
176
     0
290
     0
176
     0
290
     0
176
     0
 90
       50
176
     0
 40
0.0
176
     0
 40
1.0
176
     0
 90
        0
176
     0
 62
    18
420
        0
176
     0
 90
       50
176
     0
 90
        3
176
     0
 62
     5
420
      255
176
     0
290
     0
176
     0
 90
       50
176
     0
 90
       50
176
     0
 90
       50
176
     0
290
     0
176
     0
 90
       50
176
     0
 62
   256
176
     0
 40
1.0
176
     0
 90
        2
176
     0
  1
strokes_ogs.tif
176
     0
290
     0
176
     0
 40
1.0
176
     0
 40
1.0
176
     0
1001
ACAD
1000
AcDbSavedByObjectVersion
1070
     0
  0
VISUALSTYLE
  5
38
102
{ACAD_REACTORS
330
29
102
}
330
29
100
AcDbVisualStyle
  2
Facepattern
 70
    15
177
     3
291
     1
 70
    58
 90
        2
176
     1
 90
        2
176
     1
 90
        0
176
     1
 90
        0
176
     1
 40
0.6
176
     1
 40
30.0
176
     1
 62
     7
420
 16777215
176
     1
 90
        1
176
     1
 90
        4
176
     1
 62
     7
176
     1
 62
   257
176
     1
 90
        1
176
     1
 90
        1
176
     1
 40
1.0
176
     1
 90
        8
176
     1
 62
     7
176
     1
 40
1.0
176
     1
 90
        1
176
     1
 90
        6
176
     1
 90
        2
176
     1
 62
     7
176
     1
 90
        5
176
     1
 90
        0
176
     1
 90
        0
176
     1
290
     0
176
     1
 90
        1
176
     1
 40
0.0
176
     1
 90
        0
176
     1
290
     0
176
     1
290
     1
176
     1
290
     1
176
     1
290
     0
176
     1
290
     0
176
     1
290
     0
176
     1
290
     0
176
     1
290
     0
176
     1
290
     0
176
     1
 90
       50
176
     1
 40
0.0
176
     1
 40
1.0
176
     1
 90
        0
176
     1
 62
    18
420
        0
176
     1
 90
       50
176
     1
 90
        3
176
     1
 62
     5
420
      255
176
     1
290
     0
176
     1
 90
       50
176
     1
 90
       50
176
     1
 90
       50
176
     1
290
     0
176
     1
 90
       50
176
     1
 62
   256
176
     0
 40
1.0
176
     0
 90
        2
176
     1
  1
strokes_ogs.tif
176
     1
290
     0
176
     1
 40
1.0
176
     1
 40
1.0
176
     1
1001
ACAD
1000
AcDbSavedByObjectVersion
1070
     0
  0
VISUALSTYLE
  5
2A
102
{ACAD_REACTORS
330
29
102
}
330
29
100
AcDbVisualStyle
  2
Flat
 70
     0
177
     3
291
     1
 70
    58
 90
        2
176
     1
 90
        1
176
     1
 90
        1
176
     1
 90
        2
176
     1
 40
0.6
176
     1
 40
30.0
176
     1
 62
     7
420
 16777215
176
     1
 90
        0
176
     1
 90
        0
176
     1
 62
     7
176
     1
 62
   257
176
     1
 90
        1
176
     1
 90
        1
176
     1
 40
1.0
176
     1
 90
        8
176
     1
 62
     7
176
     1
 40
1.0
176
     1
 90
        1
176
     1
 90
        6
176
     1
 90
        2
176
     1
 62
     7
176
     1
 90
        5
176
     1
 90
        0
176
     1
 90
        0
176
     1
290
     0
176
     1
 90
       13
176
     1
 40
0.0
176
     1
 90
        0
176
     1
290
     0
176
     1
290
     1
176
     1
290
     1
176
     1
290
     0
176
     1
290
     0
176
     1
290
     0
176
     1
290
     0
176
     1
290
     0
176
     1
290
     0
176
     1
 90
       50
176
     1
 40
0.0
176
     1
 40
1.0
176
     1
 90
        0
176
     1
 62
    18
420
        0
176
     1
 90
       50
176
     1
 90
        3
176
     1
 62
     5
420
      255
176
     1
290
     0
176
     1
 90
       50
176
     1
 90
       50
176
     1
 90
       50
176
     1
290
     0
176
     1
 90
       50
176
     1
 62
   256
176
     0
 40
1.0
176
     0
 90
        2
176
     1
  1
strokes_ogs.tif
176
     1
290
     0
176
     1
 40
1.0
176
     1
 40
1.0
176
     1
1001
ACAD
1000
AcDbSavedByObjectVersion
1070
     0
  0
VISUALSTYLE
  5
2B
102
{ACAD_REACTORS
330
29
102
}
330
29
100
AcDbVisualStyle
  2
FlatWithEdges
 70
     1
177
     3
291
     1
 70
    58
 90
        2
176
     1
 90
        1
176
     1
 90
        1
176
     1
 90
        2
176
     1
 40
0.6
176
     1
 40
30.0
176
     1
 62
     7
420
 16777215
176
     1
 90
        1
176
     1
 90
        0
176
     1
 62
     7
176
     1
 62
   257
176
     1
 90
        1
176
     1
 90
        1
176
     1
 40
1.0
176
     1
 90
        0
176
     1
 62
   257
176
     1
 40
1.0
176
     1
 90
        1
176
     1
 90
        6
176
     1
 90
        2
176
     1
 62
     7
176
     1
 90
        5
176
     1
 90
        0
176
     1
 90
        0
176
     1
290
     0
176
     1
 90
       13
176
     1
 40
0.0
176
     1
 90
        0
176
     1
290
     0
176
     1
290
     1
176
     1
290
     1
176
     1
290
     0
176
     1
290
     0
176
     1
290
     0
176
     1
290
     0
176
     1
290
     0
176
     1
290
     0
176
     1
 90
       50
176
     1
 40
0.0
176
     1
 40
1.0
176
     1
 90
        0
176
     1
 62
    18
420
        0
176
     1
 90
       50
176
     1
 90
        3
176
     1
 62
     5
420
      255
176
     1
290
     0
176
     1
 90
       50
176
     1
 90
       50
176
     1
 90
       50
176
     1
290
     0
176
     1
 90
       50
176
     1
 62
   256
176
     0
 40
1.0
176
     0
 90
        2
176
     1
  1
strokes_ogs.tif
176
     1
290
     0
176
     1
 40
1.0
176
     1
 40
1.0
176
     1
1001
ACAD
1000
AcDbSavedByObjectVersion
1070
     0
  0
VISUALSTYLE
  5
2C
102
{ACAD_REACTORS
330
29
102
}
330
29
100
AcDbVisualStyle
  2
Gouraud
 70
     2
177
     3
291
     1
 70
    58
 90
        2
176
     1
 90
        2
176
     1
 90
        1
176
     1
 90
        2
176
     1
 40
0.6
176
     1
 40
30.0
176
     1
 62
     7
420
 16777215
176
     1
 90
        0
176
     1
 90
        0
176
     1
 62
     7
176
     1
 62
   257
176
     1
 90
        1
176
     1
 90
        1
176
     1
 40
1.0
176
     1
 90
        0
176
     1
 62
     7
176
     1
 40
1.0
176
     1
 90
        1
176
     1
 90
        6
176
     1
 90
        2
176
     1
 62
     7
176
     1
 90
        5
176
     1
 90
        0
176
     1
 90
        0
176
     1
290
     0
176
     1
 90
       13
176
     1
 40
0.0
176
     1
 90
        0
176
     1
290
     0
176
     1
290
     1
176
     1
290
     1
176
     1
290
     0
176
     1
290
     0
176
     1
290
     0
176
     1
290
     0
176
     1
290
     0
176
     1
290
     0
176
     1
 90
       50
176
     1
 40
0.0
176
     1
 40
1.0
176
     1
 90
        0
176
     1
 62
    18
420
        0
176
     1
 90
       50
176
     1
 90
        3
176
     1
 62
     5
420
      255
176
     1
290
     0
176
     1
 90
       50
176
     1
 90
       50
176
     1
 90
       50
176
     1
290
     0
176
     1
 90
       50
176
     1
 62
   256
176
     0
 40
1.0
176
     0
 90
        2
176
     1
  1
strokes_ogs.tif
176
     1
290
     0
176
     1
 40
1.0
176
     1
 40
1.0
176
     1
1001
ACAD
1000
AcDbSavedByObjectVersion
1070
     0
  0
VISUALSTYLE
  5
2D
102
{ACAD_REACTORS
330
29
102
}
330
29
100
AcDbVisualStyle
  2
GouraudWithEdges
 70
     3
177
     3
291
     1
 70
    58
 90
        2
176
     1
 90
        2
176
     1
 90
        1
176
     1
 90
        2
176
     1
 40
0.6
176
     1
 40
30.0
176
     1
 62
     7
420
 16777215
176
     1
 90
        1
176
     1
 90
        0
176
     1
 62
     7
176
     1
 62
   257
176
     1
 90
        1
176
     1
 90
        1
176
     1
 40
1.0
176
     1
 90
        0
176
     1
 62
   257
176
     1
 40
1.0
176
     1
 90
        1
176
     1
 90
        6
176
     1
 90
        2
176
     1
 62
     7
176
     1
 90
        5
176
     1
 90
        0
176
     1
 90
        0
176
     1
290
     0
176
     1
 90
       13
176
     1
 40
0.0
176
     1
 90
        0
176
     1
290
     0
176
     1
290
     1
176
     1
290
     1
176
     1
290
     0
176
     1
290
     0
176
     1
290
     0
176
     1
290
     0
176
     1
290
     0
176
     1
290
     0
176
     1
 90
       50
176
     1
 40
0.0
176
     1
 40
1.0
176
     1
 90
        0
176
     1
 62
    18
420
        0
176
     1
 90
       50
176
     1
 90
        3
176
     1
 62
     5
420
      255
176
     1
290
     0
176
     1
 90
       50
176
     1
 90
       50
176
     1
 90
       50
176
     1
290
     0
176
     1
 90
       50
176
     1
 62
   256
176
     0
 40
1.0
176
     0
 90
        2
176
     1
  1
strokes_ogs.tif
176
     1
290
     0
176
     1
 40
1.0
176
     1
 40
1.0
176
     1
1001
ACAD
1000
AcDbSavedByObjectVersion
1070
     0
  0
VISUALSTYLE
  5
31
102
{ACAD_REACTORS
330
29
102
}
330
29
100
AcDbVisualStyle
  2
Hidden
 70
     6
177
     3
291
     0
 70
    58
 90
        1
176
     1
 90
        2
176
     1
 90
        2
176
     1
 90
        0
176
     1
 40
0.6
176
     1
 40
30.0
176
     1
 62
     7
420
 16777215
176
     1
 90
        2
176
     1
 90
        2
176
     1
 62
     7
176
     1
 62
   257
176
     1
 90
        2
176
     1
 90
        1
176
     1
 40
40.0
176
     1
 90
        0
176
     1
 62
   257
176
     1
 40
1.0
176
     1
 90
        1
176
     1
 90
        6
176
     1
 90
        2
176
     1
 62
     7
176
     1
 90
        3
176
     1
 90
        0
176
     1
 90
        0
176
     1
290
     0
176
     1
 90
        1
176
     1
 40
0.0
176
     1
 90
        0
176
     1
290
     0
176
     1
290
     1
176
     1
290
     1
176
     1
290
     0
176
     1
290
     0
176
     1
290
     0
176
     1
290
     0
176
     1
290
     0
176
     1
290
     0
176
     1
 90
       50
176
     1
 40
0.0
176
     1
 40
1.0
176
     1
 90
        0
176
     1
 62
    18
420
        0
176
     1
 90
       50
176
     1
 90
        3
176
     1
 62
     5
420
      255
176
     1
290
     0
176
     1
 90
       50
176
     1
 90
       50
176
     1
 90
       50
176
     1
290
     0
176
     1
 90
       50
176
     1
 62
   256
176
     0
 40
1.0
176
     0
 90
        2
176
     1
  1
strokes_ogs.tif
176
     1
290
     0
176
     1
 40
1.0
176
     1
 40
1.0
176
     1
1001
ACAD
1000
AcDbSavedByObjectVersion
1070
     0
  0
VISUALSTYLE
  5
3F
102
{ACAD_REACTORS
330
29
102
}
330
29
100
AcDbVisualStyle
  2
JitterOff
 70
    20
177
     3
291
     1
 70
    58
 90
        2
176
     0
 90
        2
176
     0
 90
        0
176
     0
 90
        0
176
     0
 40
0.6
176
     0
 40
30.0
176
     0
 62
     7
420
 16777215
176
     0
 90
        1
176
     0
 90
        4
176
     0
 62
     7
176
     0
 62
   257
176
     0
 90
        1
176
     0
 90
        1
176
     0
 40
1.0
176
     0
 90
       10
176
     2
 62
     7
176
     0
 40
1.0
176
     0
 90
        1
176
     0
 90
        6
176
     0
 90
        2
176
     0
 62
     7
176
     0
 90
        5
176
     0
 90
        0
176
     0
 90
        0
176
     0
290
     0
176
     0
 90
        1
176
     0
 40
0.0
176
     0
 90
        0
176
     0
290
     0
176
     0
290
     1
176
     0
290
     1
176
     0
290
     0
176
     0
290
     0
176
     0
290
     0
176
     0
290
     0
176
     0
290
     0
176
     0
290
     0
176
     0
 90
       50
176
     0
 40
0.0
176
     0
 40
1.0
176
     0
 90
        0
176
     0
 62
    18
420
        0
176
     0
 90
       50
176
     0
 90
        3
176
     0
 62
     5
420
      255
176
     0
290
     0
176
     0
 90
       50
176
     0
 90
       50
176
     0
 90
       50
176
     0
290
     0
176
     0
 90
       50
176
     0
 62
   256
176
     0
 40
1.0
176
     0
 90
        2
176
     0
  1
strokes_ogs.tif
176
     0
290
     0
176
     0
 40
1.0
176
     0
 40
1.0
176
     0
1001
ACAD
1000
AcDbSavedByObjectVersion
1070
     0
  0
VISUALSTYLE
  5
37
102
{ACAD_REACTORS
330
29
102
}
330
29
100
AcDbVisualStyle
  2
Linepattern
 70
    14
177
     3
291
     1
 70
    58
 90
        2
176
     1
 90
        2
176
     1
 90
        0
176
     1
 90
        0
176
     1
 40
0.6
176
     1
 40
30.0
176
     1
 62
     7
420
 16777215
176
     1
 90
        1
176
     1
 90
        4
176
     1
 62
     7
176
     1
 62
   257
176
     1
 90
        7
176
     1
 90
        7
176
     1
 40
1.0
176
     1
 90
        8
176
     1
 62
     7
176
     1
 40
1.0
176
     1
 90
        1
176
     1
 90
        6
176
     1
 90
        2
176
     1
 62
     7
176
     1
 90
        5
176
     1
 90
        0
176
     1
 90
        0
176
     1
290
     0
176
     1
 90
        1
176
     1
 40
0.0
176
     1
 90
        0
176
     1
290
     0
176
     1
290
     1
176
     1
290
     1
176
     1
290
     0
176
     1
290
     0
176
     1
290
     0
176
     1
290
     0
176
     1
290
     0
176
     1
290
     0
176
     1
 90
       50
176
     1
 40
0.0
176
     1
 40
1.0
176
     1
 90
        0
176
     1
 62
    18
420
        0
176
     1
 90
       50
176
     1
 90
        3
176
     1
 62
     5
420
      255
176
     1
290
     0
176
     1
 90
       50
176
     1
 90
       50
176
     1
 90
       50
176
     1
290
     0
176
     1
 90
       50
176
     1
 62
   256
176
     0
 40
1.0
176
     0
 90
        2
176
     1
  1
strokes_ogs.tif
176
     1
290
     0
176
     1
 40
1.0
176
     1
 40
1.0
176
     1
1001
ACAD
1000
AcDbSavedByObjectVersion
1070
     0
  0
VISUALSTYLE
  5
40
102
{ACAD_REACTORS
330
29
102
}
330
29
100
AcDbVisualStyle
  2
OverhangOff
 70
    21
177
     3
291
     1
 70
    58
 90
        2
176
     0
 90
        2
176
     0
 90
        0
176
     0
 90
        0
176
     0
 40
0.6
176
     0
 40
30.0
176
     0
 62
     7
420
 16777215
176
     0
 90
        1
176
     0
 90
        4
176
     0
 62
     7
176
     0
 62
   257
176
     0
 90
        1
176
     0
 90
        1
176
     0
 40
1.0
176
     0
 90
        9
176
     2
 62
     7
176
     0
 40
1.0
176
     0
 90
        1
176
     0
 90
        6
176
     0
 90
        2
176
     0
 62
     7
176
     0
 90
        5
176
     0
 90
        0
176
     0
 90
        0
176
     0
290
     0
176
     0
 90
        1
176
     0
 40
0.0
176
     0
 90
        0
176
     0
290
     0
176
     0
290
     1
176
     0
290
     1
176
     0
290
     0
176
     0
290
     0
176
     0
290
     0
176
     0
290
     0
176
     0
290
     0
176
     0
290
     0
176
     0
 90
       50
176
     0
 40
0.0
176
     0
 40
1.0
176
     0
 90
        0
176
     0
 62
    18
420
        0
176
     0
 90
       50
176
     0
 90
        3
176
     0
 62
     5
420
      255
176
     0
290
     0
176
     0
 90
       50
176
     0
 90
       50
176
     0
 90
       50
176
     0
290
     0
176
     0
 90
       50
176
     0
 62
   256
176
     0
 40
1.0
176
     0
 90
        2
176
     0
  1
strokes_ogs.tif
176
     0
290
     0
176
     0
 40
1.0
176
     0
 40
1.0
176
     0
1001
ACAD
1000
AcDbSavedByObjectVersion
1070
     0
  0
VISUALSTYLE
  5
33
102
{ACAD_REACTORS
330
29
102
}
330
29
100
AcDbVisualStyle
  2
Realistic
 70
     8
177
     3
291
     0
 70
    58
 90
        2
176
     1
 90
        3
176
     1
 90
        0
176
     1
 90
        2
176
     1
 40
0.6
176
     1
 40
30.0
176
     1
 62
     7
420
 16777215
176
     1
 90
        0
176
     1
 90
        0
176
     1
 62
     7
176
     1
 62
   257
176
     1
 90
        1
176
     1
 90
        1
176
     1
 40
1.0
176
     1
 90
        8
176
     1
 62
   257
176
     1
 40
1.0
176
     1
 90
        1
176
     1
 90
        6
176
     1
 90
        2
176
     1
 62
     7
176
     1
 90
        3
176
     1
 90
        0
176
     1
 90
        0
176
     1
290
     0
176
     1
 90
       13
176
     1
 40
0.0
176
     1
 90
        0
176
     1
290
     0
176
     1
290
     1
176
     1
290
     1
176
     1
290
     0
176
     1
290
     0
176
     1
290
     0
176
     1
290
     0
176
     1
290
     0
176
     1
290
     0
176
     1
 90
       50
176
     1
 40
0.0
176
     1
 40
1.0
176
     1
 90
        0
176
     1
 62
    18
420
        0
176
     1
 90
       50
176
     1
 90
        3
176
     1
 62
     5
420
      255
176
     1
290
     0
176
     1
 90
       50
176
     1
 90
       50
176
     1
 90
       50
176
     1
290
     0
176
     1
 90
       50
176
     1
 62
   256
176
     0
 40
1.0
176
     0
 90
        2
176
     1
  1
strokes_ogs.tif
176
     1
290
     0
176
     1
 40
1.0
176
     1
 40
1.0
176
     1
1001
ACAD
1000
AcDbSavedByObjectVersion
1070
     0
  0
VISUALSTYLE
  5
3E
102
{ACAD_REACTORS
330
29
102
}
330
29
100
AcDbVisualStyle
  2
Shaded
 70
    27
177
     3
291
     0
 70
    58
 90
        2
176
     1
 90
        2
176
     1
 90
        1
176
     1
 90
        2
176
     1
 40
0.6
176
     1
 40
30.0
176
     1
 62
     7
420
 16777215
176
     1
 90
        0
176
     1
 90
        4
176
     1
 62
     7
176
     1
 62
   257
176
     1
 90
        1
176
     1
 90
        1
176
     1
 40
1.0
176
     1
 90
        8
176
     1
 62
   257
176
     1
 40
1.0
176
     1
 90
        1
176
     1
 90
        6
176
     1
 90
        2
176
     1
 62
     8
420
  7895160
176
     1
 90
        3
176
     1
 90
        0
176
     1
 90
        0
176
     1
290
     0
176
     1
 90
        5
176
     1
 40
0.0
176
     1
 90
        0
176
     1
290
     0
176
     1
290
     1
176
     1
290
     1
176
     1
290
     0
176
     1
290
     0
176
     1
290
     0
176
     1
290
     0
176
     1
290
     0
176
     1
290
     0
176
     1
 90
       50
176
     1
 40
0.0
176
     1
 40
1.0
176
     1
 90
        0
176
     1
 62
    18
420
        0
176
     1
 90
       50
176
     1
 90
        3
176
     1
 62
     5
420
      255
176
     1
290
     0
176
     1
 90
       50
176
     1
 90
       50
176
     1
 90
       50
176
     1
290
     0
176
     1
 90
       50
176
     1
 62
   256
176
     0
 40
1.0
176
     0
 90
        2
176
     1
  1
strokes_ogs.tif
176
     1
290
     0
176
     1
 40
1.0
176
     1
 40
1.0
176
     1
1001
ACAD
1000
AcDbSavedByObjectVersion
1070
     0
  0
VISUALSTYLE
  5
3D
102
{ACAD_REACTORS
330
29
102
}
330
29
100
AcDbVisualStyle
  2
Shaded with edges
 70
    26
177
     3
291
     0
 70
    58
 90
        2
176
     1
 90
        2
176
     1
 90
        1
176
     1
 90
        2
176
     1
 40
0.6
176
     1
 40
30.0
176
     1
 62
     7
420
 16777215
176
     1
 90
        1
176
     1
 90
        2
176
     1
 62
     7
176
     1
 62
   257
176
     1
 90
        2
176
     1
 90
        1
176
     1
 40
1.0
176
     1
 90
        8
176
     1
 62
   257
176
     1
 40
1.0
176
     1
 90
        1
176
     1
 90
        6
176
     1
 90
        2
176
     1
 62
     7
176
     1
 90
        3
176
     1
 90
        0
176
     1
 90
        0
176
     1
290
     0
176
     1
 90
        5
176
     1
 40
0.0
176
     1
 90
        0
176
     1
290
     0
176
     1
290
     1
176
     1
290
     1
176
     1
290
     0
176
     1
290
     0
176
     1
290
     0
176
     1
290
     0
176
     1
290
     0
176
     1
290
     0
176
     1
 90
       50
176
     1
 40
0.0
176
     1
 40
1.0
176
     1
 90
        0
176
     1
 62
    18
420
        0
176
     1
 90
       50
176
     1
 90
        3
176
     1
 62
     5
420
      255
176
     1
290
     0
176
     1
 90
       50
176
     1
 90
       50
176
     1
 90
       50
176
     1
290
     0
176
     1
 90
       50
176
     1
 62
   256
176
     0
 40
1.0
176
     0
 90
        2
176
     1
  1
strokes_ogs.tif
176
     1
290
     0
176
     1
 40
1.0
176
     1
 40
1.0
176
     1
1001
ACAD
1000
AcDbSavedByObjectVersion
1070
     0
  0
VISUALSTYLE
  5
3A
102
{ACAD_REACTORS
330
29
102
}
330
29
100
AcDbVisualStyle
  2
Shades of Gray
 70
    23
177
     3
291
     0
 70
    58
 90
        2
176
     1
 90
        2
176
     1
 90
        3
176
     1
 90
        0
176
     1
 40
0.6
176
     1
 40
30.0
176
     1
 62
     7
420
 16777215
176
     1
 90
        2
176
     1
 90
        2
176
     1
 62
     7
176
     1
 62
     7
176
     1
 90
        1
176
     1
 90
        1
176
     1
 40
40.0
176
     1
 90
        8
176
     1
 62
     7
176
     1
 40
1.0
176
     1
 90
        1
176
     1
 90
        6
176
     1
 90
        2
176
     1
 62
     7
176
     1
 90
        3
176
     1
 90
        0
176
     1
 90
        0
176
     1
290
     0
176
     1
 90
        1
176
     1
 40
0.0
176
     1
 90
        0
176
     1
290
     0
176
     1
290
     1
176
     1
290
     1
176
     1
290
     0
176
     1
290
     0
176
     1
290
     0
176
     1
290
     0
176
     1
290
     0
176
     1
290
     0
176
     1
 90
       50
176
     1
 40
0.0
176
     1
 40
1.0
176
     1
 90
        0
176
     1
 62
    18
420
        0
176
     1
 90
       50
176
     1
 90
        3
176
     1
 62
     5
420
      255
176
     1
290
     0
176
     1
 90
       50
176
     1
 90
       50
176
     1
 90
       50
176
     1
290
     0
176
     1
 90
       50
176
     1
 62
   256
176
     0
 40
1.0
176
     0
 90
        2
176
     1
  1
strokes_ogs.tif
176
     1
290
     0
176
     1
 40
1.0
176
     1
 40
1.0
176
     1
1001
ACAD
1000
AcDbSavedByObjectVersion
1070
     0
  0
VISUALSTYLE
  5
3B
102
{ACAD_REACTORS
330
29
102
}
330
29
100
AcDbVisualStyle
  2
Sketchy
 70
    24
177
     3
291
     0
 70
    58
 90
        1
176
     1
 90
        2
176
     1
 90
        2
176
     1
 90
        0
176
     1
 40
0.6
176
     1
 40
30.0
176
     1
 62
     7
420
 16777215
176
     1
 90
        2
176
     1
 90
        2
176
     1
 62
     7
176
     1
 62
     7
176
     1
 90
        1
176
     1
 90
        1
176
     1
 40
40.0
176
     1
 90
       11
176
     1
 62
     7
176
     1
 40
1.0
176
     1
 90
        1
176
     1
 90
        6
176
     1
 90
        2
176
     1
 62
     7
176
     1
 90
        6
176
     1
 90
        0
176
     1
 90
        0
176
     1
290
     0
176
     1
 90
        1
176
     1
 40
0.0
176
     1
 90
        0
176
     1
290
     0
176
     1
290
     1
176
     1
290
     1
176
     1
290
     0
176
     1
290
     0
176
     1
290
     0
176
     1
290
     0
176
     1
290
     0
176
     1
290
     0
176
     1
 90
       50
176
     1
 40
0.0
176
     1
 40
1.0
176
     1
 90
        0
176
     1
 62
    18
420
        0
176
     1
 90
       50
176
     1
 90
        3
176
     1
 62
     5
420
      255
176
     1
290
     0
176
     1
 90
       50
176
     1
 90
       50
176
     1
 90
       50
176
     1
290
     0
176
     1
 90
       50
176
     1
 62
   256
176
     0
 40
1.0
176
     0
 90
        2
176
     1
  1
strokes_ogs.tif
176
     1
290
     0
176
     1
 40
1.0
176
     1
 40
1.0
176
     1
1001
ACAD
1000
AcDbSavedByObjectVersion
1070
     0
  0
VISUALSTYLE
  5
36
102
{ACAD_REACTORS
330
29
102
}
330
29
100
AcDbVisualStyle
  2
Thicken
 70
    13
177
     3
291
     1
 70
    58
 90
        2
176
     1
 90
        2
176
     1
 90
        0
176
     1
 90
        0
176
     1
 40
0.6
176
     1
 40
30.0
176
     1
 62
     7
420
 16777215
176
     1
 90
        1
176
     1
 90
        4
176
     1
 62
     7
176
     1
 62
   257
176
     1
 90
        1
176
     1
 90
        1
176
     1
 40
1.0
176
     1
 90
       12
176
     1
 62
     7
176
     1
 40
1.0
176
     1
 90
        1
176
     1
 90
        6
176
     1
 90
        2
176
     1
 62
     7
176
     1
 90
        5
176
     1
 90
        0
176
     1
 90
        0
176
     1
290
     0
176
     1
 90
        1
176
     1
 40
0.0
176
     1
 90
        0
176
     1
290
     0
176
     1
290
     1
176
     1
290
     1
176
     1
290
     0
176
     1
290
     0
176
     1
290
     0
176
     1
290
     0
176
     1
290
     0
176
     1
290
     0
176
     1
 90
       50
176
     1
 40
0.0
176
     1
 40
1.0
176
     1
 90
        0
176
     1
 62
    18
420
        0
176
     1
 90
       50
176
     1
 90
        3
176
     1
 62
     5
420
      255
176
     1
290
     0
176
     1
 90
       50
176
     1
 90
       50
176
     1
 90
       50
176
     1
290
     0
176
     1
 90
       50
176
     1
 62
   256
176
     0
 40
1.0
176
     0
 90
        2
176
     1
  1
strokes_ogs.tif
176
     1
290
     0
176
     1
 40
1.0
176
     1
 40
1.0
176
     1
1001
ACAD
1000
AcDbSavedByObjectVersion
1070
     0
  0
VISUALSTYLE
  5
30
102
{ACAD_REACTORS
330
29
102
}
330
29
100
AcDbVisualStyle
  2
Wireframe
 70
     5
177
     3
291
     0
 70
    58
 90
        0
176
     1
 90
        2
176
     1
 90
        0
176
     1
 90
        0
176
     1
 40
0.6
176
     1
 40
30.0
176
     1
 62
     7
420
 16777215
176
     1
 90
        1
176
     1
 90
        4
176
     1
 62
     7
176
     1
 62
   257
176
     1
 90
        1
176
     1
 90
        1
176
     1
 40
1.0
176
     1
 90
        0
176
     1
 62
   257
176
     1
 40
1.0
176
     1
 90
        1
176
     1
 90
        6
176
     1
 90
        2
176
     1
 62
     7
176
     1
 90
        3
176
     1
 90
        0
176
     1
 90
        0
176
     1
290
     0
176
     1
 90
        1
176
     1
 40
0.0
176
     1
 90
        0
176
     1
290
     0
176
     1
290
     1
176
     1
290
     1
176
     1
290
     0
176
     1
290
     0
176
     1
290
     0
176
     1
290
     0
176
     1
290
     0
176
     1
290
     0
176
     1
 90
       50
176
     1
 40
0.0
176
     1
 40
1.0
176
     1
 90
        0
176
     1
 62
    18
420
        0
176
     1
 90
       50
176
     1
 90
        3
176
     1
 62
     5
420
      255
176
     1
290
     0
176
     1
 90
       50
176
     1
 90
       50
176
     1
 90
       50
176
     1
290
     0
176
     1
 90
       50
176
     1
 62
   256
176
     0
 40
1.0
176
     0
 90
        2
176
     1
  1
strokes_ogs.tif
176
     1
290
     0
176
     1
 40
1.0
176
     1
 40
1.0
176
     1
1001
ACAD
1000
AcDbSavedByObjectVersion
1070
     0
  0
VISUALSTYLE
  5
3C
102
{ACAD_REACTORS
330
29
102
}
330
29
100
AcDbVisualStyle
  2
X-Ray
 70
    25
177
     3
291
     0
 70
    58
 90
        2
176
     1
 90
        2
176
     1
 90
        1
176
     1
 90
        1
176
     1
 40
0.5
176
     1
 40
30.0
176
     1
 62
     7
420
 16777215
176
     1
 90
        1
176
     1
 90
        0
176
     1
 62
     7
176
     1
 62
   257
176
     1
 90
        1
176
     1
 90
        1
176
     1
 40
1.0
176
     1
 90
        8
176
     1
 62
     7
176
     1
 40
1.0
176
     1
 90
        1
176
     1
 90
        6
176
     1
 90
        2
176
     1
 62
     7
176
     1
 90
        3
176
     1
 90
        0
176
     1
 90
        0
176
     1
290
     0
176
     1
 90
       13
176
     1
 40
0.0
176
     1
 90
        0
176
     1
290
     0
176
     1
290
     1
176
     1
290
     1
176
     1
290
     0
176
     1
290
     0
176
     1
290
     0
176
     1
290
     0
176
     1
290
     0
176
     1
290
     0
176
     1
 90
       50
176
     1
 40
0.0
176
     1
 40
1.0
176
     1
 90
        0
176
     1
 62
    18
420
        0
176
     1
 90
       50
176
     1
 90
        3
176
     1
 62
     5
420
      255
176
     1
290
     0
176
     1
 90
       50
176
     1
 90
       50
176
     1
 90
       50
176
     1
290
     0
176
     1
 90
       50
176
     1
 62
   256
176
     0
 40
1.0
176
     0
 90
        2
176
     1
  1
strokes_ogs.tif
176
     1
290
     0
176
     1
 40
1.0
176
     1
 40
1.0
176
     1
1001
ACAD
1000
AcDbSavedByObjectVersion
1070
     0
  0
DICTIONARYVAR
  5
54E
102
{ACAD_REACTORS
330
549
102
}
330
549
100
DictionaryVariables
280
     0
  1
0
  0
DICTIONARYVAR
  5
54F
102
{ACAD_REACTORS
330
549
102
}
330
549
100
DictionaryVariables
280
     0
  1
1:1
  0
DICTIONARYVAR
  5
54B
102
{ACAD_REACTORS
330
549
102
}
330
549
100
DictionaryVariables
280
     0
  1
STANDARD
  0
DICTIONARYVAR
  5
54A
102
{ACAD_REACTORS
330
549
102
}
330
549
100
DictionaryVariables
280
     0
  1
STANDARD
  0
DICTIONARYVAR
  5
54C
102
{ACAD_REACTORS
330
549
102
}
330
549
100
DictionaryVariables
280
     0
  1
Imperial24
  0
DICTIONARYVAR
  5
54D
102
{ACAD_REACTORS
330
549
102
}
330
549
100
DictionaryVariables
280
     0
  1
Imperial24
  0
DICTIONARY
  5
555
330
6B
100
AcDbDictionary
280
     1
281
     1
  3
ACAD_XREC_ROUNDTRIP
360
556
  0
DICTIONARY
  5
1A
330
19
100
AcDbDictionary
280
     1
281
     1
  3
BUMPTILE
360
1C
  3
DIFFUSETILE
360
1B
  3
OPACITYTILE
360
1F
  3
REFLECTIONTILE
360
1E
  3
REFRACTIONTILE
360
20
  3
SPECULARTILE
360
1D
  0
DICTIONARY
  5
12
330
11
100
AcDbDictionary
280
     1
281
     1
  3
BUMPTILE
360
14
  3
DIFFUSETILE
360
13
  3
OPACITYTILE
360
17
  3
REFLECTIONTILE
360
16
  3
REFRACTIONTILE
360
18
  3
SPECULARTILE
360
15
  0
DICTIONARY
  5
22
330
21
100
AcDbDictionary
280
     1
281
     1
  3
BUMPTILE
360
24
  3
DIFFUSETILE
360
23
  3
OPACITYTILE
360
27
  3
REFLECTIONTILE
360
26
  3
REFRACTIONTILE
360
28
  3
SPECULARTILE
360
25
  0
DICTIONARY
  5
553
330
69
100
AcDbDictionary
280
     1
281
     1
  3
ACAD_XREC_ROUNDTRIP
360
554
  0
DICTIONARY
  5
550
330
65
100
AcDbDictionary
280
     1
281
     1
  3
ACAD_ROUNDTRIP_2008_TABLESTYLE_CELLSTYLEMAP
360
551
  0
XRECORD
  5
556
102
{ACAD_REACTORS
330
555
102
}
330
555
100
AcDbXrecord
280
     1
102
DISPLAYNAME
  1
Imperial24
102
FLAGS
 90
        0
  0
XRECORD
  5
1C
102
{ACAD_REACTORS
330
1A
102
}
330
1A
100
AcDbXrecord
280
     1
270
     1
271
     1
  0
XRECORD
  5
1B
102
{ACAD_REACTORS
330
1A
102
}
330
1A
100
AcDbXrecord
280
     1
270
     1
271
     1
  0
XRECORD
  5
1F
102
{ACAD_REACTORS
330
1A
102
}
330
1A
100
AcDbXrecord
280
     1
270
     1
271
     1
  0
XRECORD
  5
1E
102
{ACAD_REACTORS
330
1A
102
}
330
1A
100
AcDbXrecord
280
     1
270
     1
271
     1
  0
XRECORD
  5
20
102
{ACAD_REACTORS
330
1A
102
}
330
1A
100
AcDbXrecord
280
     1
270
     1
271
     1
  0
XRECORD
  5
1D
102
{ACAD_REACTORS
330
1A
102
}
330
1A
100
AcDbXrecord
280
     1
270
     1
271
     1
  0
XRECORD
  5
14
102
{ACAD_REACTORS
330
12
102
}
330
12
100
AcDbXrecord
280
     1
270
     1
271
     1
  0
XRECORD
  5
13
102
{ACAD_REACTORS
330
12
102
}
330
12
100
AcDbXrecord
280
     1
270
     1
271
     1
  0
XRECORD
  5
17
102
{ACAD_REACTORS
330
12
102
}
330
12
100
AcDbXrecord
280
     1
270
     1
271
     1
  0
XRECORD
  5
16
102
{ACAD_REACTORS
330
12
102
}
330
12
100
AcDbXrecord
280
     1
270
     1
271
     1
  0
XRECORD
  5
18
102
{ACAD_REACTORS
330
12
102
}
330
12
100
AcDbXrecord
280
     1
270
     1
271
     1
  0
XRECORD
  5
15
102
{ACAD_REACTORS
330
12
102
}
330
12
100
AcDbXrecord
280
     1
270
     1
271
     1
  0
XRECORD
  5
24
102
{ACAD_REACTORS
330
22
102
}
330
22
100
AcDbXrecord
280
     1
270
     1
271
     1
  0
XRECORD
  5
23
102
{ACAD_REACTORS
330
22
102
}
330
22
100
AcDbXrecord
280
     1
270
     1
271
     1
  0
XRECORD
  5
27
102
{ACAD_REACTORS
330
22
102
}
330
22
100
AcDbXrecord
280
     1
270
     1
271
     1
  0
XRECORD
  5
26
102
{ACAD_REACTORS
330
22
102
}
330
22
100
AcDbXrecord
280
     1
270
     1
271
     1
  0
XRECORD
  5
28
102
{ACAD_REACTORS
330
22
102
}
330
22
100
AcDbXrecord
280
     1
270
     1
271
     1
  0
XRECORD
  5
25
102
{ACAD_REACTORS
330
22
102
}
330
22
100
AcDbXrecord
280
     1
270
     1
271
     1
  0
XRECORD
  5
554
102
{ACAD_REACTORS
330
553
102
}
330
553
100
AcDbXrecord
280
     1
102
DISPLAYNAME
  1
Imperial24
102
FLAGS
 90
        0
  0
CELLSTYLEMAP
  5
551
102
{ACAD_REACTORS
330
550
102
}
330
550
100
AcDbCellStyleMap
 90
        3
300
CELLSTYLE
  1
TABLEFORMAT_BEGIN
 90
        5
170
     1
 91
        0
 92
    32768
 62
   257
 93
        1
300
CONTENTFORMAT
  1
CONTENTFORMAT_BEGIN
 90
        0
 91
        0
 92
      512
 93
        0
300

 40
0.0
140
1.0
 94
        5
 62
     0
340
55
144
0.25
309
CONTENTFORMAT_END
171
     1
301
MARGIN
  1
CELLMARGIN_BEGIN
 40
1.5
 40
1.5
 40
1.5
 40
1.5
 40
0.18
 40
0.18
309
CELLMARGIN_END
 94
        0
309
TABLEFORMAT_END
  1
CELLSTYLE_BEGIN
 90
        1
 91
        1
300
_TITLE
309
CELLSTYLE_END
300
CELLSTYLE
  1
TABLEFORMAT_BEGIN
 90
        5
170
     1
 91
        0
 92
        0
 62
   257
 93
        1
300
CONTENTFORMAT
  1
CONTENTFORMAT_BEGIN
 90
        0
 91
        0
 92
      512
 93
        0
300

 40
0.0
140
1.0
 94
        5
 62
     0
340
55
144
0.18
309
CONTENTFORMAT_END
171
     1
301
MARGIN
  1
CELLMARGIN_BEGIN
 40
1.5
 40
1.5
 40
1.5
 40
1.5
 40
0.18
 40
0.18
309
CELLMARGIN_END
 94
        0
309
TABLEFORMAT_END
  1
CELLSTYLE_BEGIN
 90
        2
 91
        1
300
_HEADER
309
CELLSTYLE_END
300
CELLSTYLE
  1
TABLEFORMAT_BEGIN
 90
        5
170
     1
 91
        0
 92
        0
 62
   257
 93
        1
300
CONTENTFORMAT
  1
CONTENTFORMAT_BEGIN
 90
        0
 91
        0
 92
      512
 93
        0
300

 40
0.0
140
1.0
 94
        2
 62
     0
340
55
144
0.18
309
CONTENTFORMAT_END
171
     1
301
MARGIN
  1
CELLMARGIN_BEGIN
 40
1.5
 40
1.5
 40
1.5
 40
1.5
 40
0.18
 40
0.18
309
CELLMARGIN_END
 94
        0
309
TABLEFORMAT_END
  1
CELLSTYLE_BEGIN
 90
        3
 91
        2
300
_DATA
309
CELLSTYLE_END
  0
ENDSEC
  0
EOF
